  0
SECTION
  2
HEADER
  9
$ACADVER
  1
AC1015
  9
$ACADMAINTVER
 70
     6
  9
$DWGCODEPAGE
  3
ANSI_932
  9
$INSBASE
 10
0.0
 20
0.0
 30
0.0
  9
$EXTMIN
 10
-0.613342
 20
-4.795746
 30
0.0
  9
$EXTMAX
 10
419.386658
 20
292.204254
 30
0.0
  9
$LIMMIN
 10
0.0
 20
0.0
  9
$LIMMAX
 10
12.0
 20
9.0
  9
$ORTHOMODE
 70
     0
  9
$REGENMODE
 70
     1
  9
$FILLMODE
 70
     1
  9
$QTEXTMODE
 70
     0
  9
$MIRRTEXT
 70
     1
  9
$LTSCALE
 40
5.144016
  9
$ATTMODE
 70
     1
  9
$TEXTSIZE
 40
3.2
  9
$TRACEWID
 40
1.0
  9
$TEXTSTYLE
  7
Standard
  9
$CLAYER
  8
0
  9
$CELTYPE
  6
ByLayer
  9
$CECOLOR
 62
   256
  9
$CELTSCALE
 40
1.0
  9
$DISPSILH
 70
     0
  9
$DIMSCALE
 40
1.0
  9
$DIMASZ
 40
2.5
  9
$DIMEXO
 40
0.625
  9
$DIMDLI
 40
3.75
  9
$DIMRND
 40
0.0
  9
$DIMDLE
 40
0.0
  9
$DIMEXE
 40
1.25
  9
$DIMTP
 40
0.0
  9
$DIMTM
 40
0.0
  9
$DIMTXT
 40
2.5
  9
$DIMCEN
 40
0.09
  9
$DIMTSZ
 40
0.0
  9
$DIMTOL
 70
     0
  9
$DIMLIM
 70
     0
  9
$DIMTIH
 70
     0
  9
$DIMTOH
 70
     0
  9
$DIMSE1
 70
     0
  9
$DIMSE2
 70
     0
  9
$DIMTAD
 70
     0
  9
$DIMZIN
 70
     8
  9
$DIMBLK
  1

  9
$DIMASO
 70
     1
  9
$DIMSHO
 70
     0
  9
$DIMPOST
  1

  9
$DIMAPOST
  1

  9
$DIMALT
 70
     0
  9
$DIMALTD
 70
     3
  9
$DIMALTF
 40
0.03937
  9
$DIMLFAC
 40
1.0
  9
$DIMTOFL
 70
     1
  9
$DIMTVP
 40
0.0
  9
$DIMTIX
 70
     0
  9
$DIMSOXD
 70
     0
  9
$DIMSAH
 70
     0
  9
$DIMBLK1
  1

  9
$DIMBLK2
  1

  9
$DIMSTYLE
  2
ISO-25
  9
$DIMCLRD
 70
     0
  9
$DIMCLRE
 70
     0
  9
$DIMCLRT
 70
     0
  9
$DIMTFAC
 40
1.0
  9
$DIMGAP
 40
0.625
  9
$DIMJUST
 70
     0
  9
$DIMSD1
 70
     0
  9
$DIMSD2
 70
     0
  9
$DIMTOLJ
 70
     0
  9
$DIMTZIN
 70
     8
  9
$DIMALTZ
 70
     0
  9
$DIMALTTZ
 70
     0
  9
$DIMUPT
 70
     0
  9
$DIMDEC
 70
     2
  9
$DIMTDEC
 70
     2
  9
$DIMALTU
 70
     2
  9
$DIMALTTD
 70
     3
  9
$DIMTXSTY
  7
Standard
  9
$DIMAUNIT
 70
     0
  9
$DIMADEC
 70
     0
  9
$DIMALTRND
 40
0.0
  9
$DIMAZIN
 70
     0
  9
$DIMDSEP
 70
    44
  9
$DIMATFIT
 70
     3
  9
$DIMFRAC
 70
     0
  9
$DIMLDRBLK
  1

  9
$DIMLUNIT
 70
     2
  9
$DIMLWD
 70
    -2
  9
$DIMLWE
 70
    -2
  9
$DIMTMOVE
 70
     0
  9
$LUNITS
 70
     2
  9
$LUPREC
 70
     4
  9
$SKETCHINC
 40
1.0
  9
$FILLETRAD
 40
0.0
  9
$AUNITS
 70
     0
  9
$AUPREC
 70
     0
  9
$MENU
  1
.
  9
$ELEVATION
 40
0.0
  9
$PELEVATION
 40
0.0
  9
$THICKNESS
 40
0.0
  9
$LIMCHECK
 70
     0
  9
$CHAMFERA
 40
10.0
  9
$CHAMFERB
 40
10.0
  9
$CHAMFERC
 40
20.0
  9
$CHAMFERD
 40
0.0
  9
$SKPOLY
 70
     0
  9
$TDCREATE
 40
2457301.573787754
  9
$TDUCREATE
 40
2457301.198787754
  9
$TDUPDATE
 40
2457301.573788657
  9
$TDUUPDATE
 40
2457301.198788657
  9
$TDINDWG
 40
0.0000000116
  9
$TDUSRTIMER
 40
0.0000000116
  9
$USRTIMER
 70
     1
  9
$ANGBASE
 50
0.0
  9
$ANGDIR
 70
     0
  9
$PDMODE
 70
     0
  9
$PDSIZE
 40
0.0
  9
$PLINEWID
 40
0.0
  9
$SPLFRAME
 70
     0
  9
$SPLINETYPE
 70
     6
  9
$SPLINESEGS
 70
     8
  9
$HANDSEED
  5
53D
  9
$SURFTAB1
 70
     6
  9
$SURFTAB2
 70
     6
  9
$SURFTYPE
 70
     6
  9
$SURFU
 70
     6
  9
$SURFV
 70
     6
  9
$UCSBASE
  2

  9
$UCSNAME
  2

  9
$UCSORG
 10
0.0
 20
0.0
 30
0.0
  9
$UCSXDIR
 10
1.0
 20
0.0
 30
0.0
  9
$UCSYDIR
 10
0.0
 20
1.0
 30
0.0
  9
$UCSORTHOREF
  2

  9
$UCSORTHOVIEW
 70
     0
  9
$UCSORGTOP
 10
0.0
 20
0.0
 30
0.0
  9
$UCSORGBOTTOM
 10
0.0
 20
0.0
 30
0.0
  9
$UCSORGLEFT
 10
0.0
 20
0.0
 30
0.0
  9
$UCSORGRIGHT
 10
0.0
 20
0.0
 30
0.0
  9
$UCSORGFRONT
 10
0.0
 20
0.0
 30
0.0
  9
$UCSORGBACK
 10
0.0
 20
0.0
 30
0.0
  9
$PUCSBASE
  2

  9
$PUCSNAME
  2

  9
$PUCSORG
 10
0.0
 20
0.0
 30
0.0
  9
$PUCSXDIR
 10
1.0
 20
0.0
 30
0.0
  9
$PUCSYDIR
 10
0.0
 20
1.0
 30
0.0
  9
$PUCSORTHOREF
  2

  9
$PUCSORTHOVIEW
 70
     0
  9
$PUCSORGTOP
 10
0.0
 20
0.0
 30
0.0
  9
$PUCSORGBOTTOM
 10
0.0
 20
0.0
 30
0.0
  9
$PUCSORGLEFT
 10
0.0
 20
0.0
 30
0.0
  9
$PUCSORGRIGHT
 10
0.0
 20
0.0
 30
0.0
  9
$PUCSORGFRONT
 10
0.0
 20
0.0
 30
0.0
  9
$PUCSORGBACK
 10
0.0
 20
0.0
 30
0.0
  9
$USERI1
 70
     0
  9
$USERI2
 70
     0
  9
$USERI3
 70
     0
  9
$USERI4
 70
     0
  9
$USERI5
 70
     0
  9
$USERR1
 40
0.0
  9
$USERR2
 40
0.0
  9
$USERR3
 40
0.0
  9
$USERR4
 40
0.0
  9
$USERR5
 40
0.0
  9
$WORLDVIEW
 70
     1
  9
$SHADEDGE
 70
     3
  9
$SHADEDIF
 70
    70
  9
$TILEMODE
 70
     1
  9
$MAXACTVP
 70
    64
  9
$PINSBASE
 10
0.0
 20
0.0
 30
0.0
  9
$PLIMCHECK
 70
     0
  9
$PEXTMIN
 10
1.000000E+20
 20
1.000000E+20
 30
0.0
  9
$PEXTMAX
 10
-1.000000E+20
 20
-1.000000E+20
 30
0.0
  9
$PLIMMIN
 10
0.0
 20
0.0
  9
$PLIMMAX
 10
12.0
 20
9.0
  9
$UNITMODE
 70
     0
  9
$VISRETAIN
 70
     1
  9
$PLINEGEN
 70
     0
  9
$PSLTSCALE
 70
     1
  9
$TREEDEPTH
 70
  3020
  9
$CMLSTYLE
  2
Standard
  9
$CMLJUST
 70
     0
  9
$CMLSCALE
 40
20.0
  9
$PROXYGRAPHICS
 70
     1
  9
$MEASUREMENT
 70
     1
  9
$CELWEIGHT
370
    -1
  9
$ENDCAPS
280
     0
  9
$JOINSTYLE
280
     0
  9
$LWDISPLAY
290
     0
  9
$INSUNITS
 70
     4
  9
$HYPERLINKBASE
  1

  9
$STYLESHEET
  1

  9
$XEDIT
290
     1
  9
$CEPSNTYPE
380
     0
  9
$PSTYLEMODE
290
     1
  9
$FINGERPRINTGUID
  2
{7E894095-6158-42EB-ADE0-0DC1D710A573}
  9
$VERSIONGUID
  2
{FAEB1C32-E019-11D5-929B-00C0DF256EC4}
  9
$EXTNAMES
290
     1
  9
$PSVPSCALE
 40
0.0
  9
$OLESTARTUP
290
     0
  0
ENDSEC
  0
SECTION
  2
CLASSES
  0
CLASS
  1
ACDBDICTIONARYWDFLT
  2
AcDbDictionaryWithDefault
  3
ObjectDBX Classes
 90
        0
280
     0
281
     0
  0
CLASS
  1
VISUALSTYLE
  2
AcDbVisualStyle
  3
ObjectDBX Classes
 90
     4095
280
     0
281
     0
  0
CLASS
  1
MATERIAL
  2
AcDbMaterial
  3
ObjectDBX Classes
 90
     1153
280
     0
281
     0
  0
CLASS
  1
DICTIONARYVAR
  2
AcDbDictionaryVar
  3
ObjectDBX Classes
 90
        0
280
     0
281
     0
  0
CLASS
  1
ACDBPLACEHOLDER
  2
AcDbPlaceHolder
  3
ObjectDBX Classes
 90
        0
280
     0
281
     0
  0
CLASS
  1
LAYOUT
  2
AcDbLayout
  3
ObjectDBX Classes
 90
        0
280
     0
281
     0
  0
ENDSEC
  0
SECTION
  2
TABLES
  0
TABLE
  2
VPORT
  5
8
330
0
100
AcDbSymbolTable
 70
     1
  0
VPORT
  5
29
330
8
100
AcDbSymbolTableRecord
100
AcDbViewportTableRecord
  2
*Active
 70
     0
 10
0.0
 20
0.0
 11
1.0
 21
1.0
 12
209.386658
 22
143.704254
 13
0.0
 23
0.0
 14
1.0
 24
1.0
 15
0.0
 25
0.0
 16
0.0
 26
0.0
 36
1.0
 17
0.0
 27
0.0
 37
0.0
 40
299.97
 41
1.691288
 42
50.0
 43
0.0
 44
0.0
 50
0.0
 51
0.0
 71
     0
 72
  1000
 73
     1
 74
     3
 75
     0
 76
     0
 77
     0
 78
     0
281
     0
 65
     1
110
0.0
120
0.0
130
0.0
111
1.0
121
0.0
131
0.0
112
0.0
122
1.0
132
0.0
 79
     0
146
0.0
  0
ENDTAB
  0
TABLE
  2
LTYPE
  5
5
330
0
100
AcDbSymbolTable
 70
     5
  0
LTYPE
  5
14
330
5
100
AcDbSymbolTableRecord
100
AcDbLinetypeTableRecord
  2
ByBlock
 70
     0
  3

 72
    65
 73
     0
 40
0.0
  0
LTYPE
  5
15
330
5
100
AcDbSymbolTableRecord
100
AcDbLinetypeTableRecord
  2
ByLayer
 70
     0
  3

 72
    65
 73
     0
 40
0.0
  0
LTYPE
  5
16
330
5
100
AcDbSymbolTableRecord
100
AcDbLinetypeTableRecord
  2
Continuous
 70
     0
  3
Solid line
 72
    65
 73
     0
 40
0.0
  0
LTYPE
  5
3F
330
5
100
AcDbSymbolTableRecord
100
AcDbLinetypeTableRecord
  2
DASHED
 70
     0
  3
DASHED
 72
    83
 73
     2
 40
0.75
 49
0.5
 74
     0
 49
-0.25
 74
     0
  0
LTYPE
  5
40
330
5
100
AcDbSymbolTableRecord
100
AcDbLinetypeTableRecord
  2
HIDDEN
 70
     0
  3
HIDDEN
 72
    83
 73
     2
 40
0.375
 49
0.25
 74
     0
 49
-0.125
 74
     0
  0
LTYPE
  5
41
330
5
100
AcDbSymbolTableRecord
100
AcDbLinetypeTableRecord
  2
CENTER
 70
     0
  3
CENTER
 72
    83
 73
     4
 40
2.0
 49
1.25
 74
     0
 49
-0.25
 74
     0
 49
0.25
 74
     0
 49
-0.25
 74
     0
  0
LTYPE
  5
42
330
5
100
AcDbSymbolTableRecord
100
AcDbLinetypeTableRecord
  2
PHANTOM
 70
     0
  3
PHANTOM
 72
    83
 73
     6
 40
2.5
 49
1.25
 74
     0
 49
-0.25
 74
     0
 49
0.25
 74
     0
 49
-0.25
 74
     0
 49
0.25
 74
     0
 49
-0.25
 74
     0
  0
ENDTAB
  0
TABLE
  2
LAYER
  5
2
330
0
100
AcDbSymbolTable
 70
     5
  0
LAYER
  5
10
330
2
100
AcDbSymbolTableRecord
100
AcDbLayerTableRecord
  2
0
 70
     0
 62
     7
  6
Continuous
370
    -3
390
F
  0
LAYER
  5
43
330
2
100
AcDbSymbolTableRecord
100
AcDbLayerTableRecord
  2
001
 70
     0
 62
     7
  6
Continuous
370
    -3
390
F
  0
LAYER
  5
44
330
2
100
AcDbSymbolTableRecord
100
AcDbLayerTableRecord
  2
002
 70
     0
 62
     7
  6
Continuous
370
    -3
390
F
  0
LAYER
  5
45
330
2
100
AcDbSymbolTableRecord
100
AcDbLayerTableRecord
  2
003
 70
     0
 62
     7
  6
Continuous
370
    -3
390
F
  0
LAYER
  5
46
330
2
100
AcDbSymbolTableRecord
100
AcDbLayerTableRecord
  2
020
 70
     0
 62
     7
  6
Continuous
370
    -3
390
F
  0
ENDTAB
  0
TABLE
  2
STYLE
  5
3
330
0
100
AcDbSymbolTable
 70
     2
  0
STYLE
  5
11
330
3
100
AcDbSymbolTableRecord
100
AcDbTextStyleTableRecord
  2
Standard
 70
     0
 40
0.0
 41
1.0
 50
0.0
 71
     0
 42
0.2
  3
TXT
  4
BIGFONT
  0
STYLE
  5
47
330
3
100
AcDbSymbolTableRecord
100
AcDbTextStyleTableRecord
  2
TATEGAKI
 70
     4
 40
1.0
 41
1.0
 50
0.0
 71
     0
 42
0.2
  3
TXT
  4
BIGFONT
  0
ENDTAB
  0
TABLE
  2
VIEW
  5
6
330
0
100
AcDbSymbolTable
 70
     0
  0
ENDTAB
  0
TABLE
  2
UCS
  5
7
330
0
100
AcDbSymbolTable
 70
     0
  0
ENDTAB
  0
TABLE
  2
APPID
  5
9
330
0
100
AcDbSymbolTable
 70
     1
  0
APPID
  5
12
330
9
100
AcDbSymbolTableRecord
100
AcDbRegAppTableRecord
  2
ACAD
 70
     0
  0
ENDTAB
  0
TABLE
  2
DIMSTYLE
  5
A
330
0
100
AcDbSymbolTable
 70
     2
100
AcDbDimStyleTable
  0
DIMSTYLE
105
27
330
A
100
AcDbSymbolTableRecord
100
AcDbDimStyleTableRecord
  2
ISO-25
 70
     0
 41
2.5
 42
0.625
 43
3.75
 44
1.25
 73
     0
 74
     0
 77
     1
 78
     8
140
2.5
141
2.5
143
0.03937
147
0.625
171
     3
172
     1
178
     0
271
     2
272
     2
274
     3
278
    44
283
     0
284
     8
340
11
  0
DIMSTYLE
105
48
102
{ACAD_REACTORS
330
133
330
145
330
146
330
1D5
330
1D6
330
1D7
330
1D8
330
1D9
330
278
330
279
330
27C
330
27D
330
27E
330
2F1
330
30D
330
30E
330
311
330
312
330
3FC
330
3FD
330
3FF
330
405
330
406
330
480
330
481
330
482
330
483
102
}
330
A
100
AcDbSymbolTableRecord
100
AcDbDimStyleTableRecord
  2
Standard
 70
     0
 41
1.5
 42
1.0
 44
1.0
 73
     0
 74
     0
 77
     1
 78
     8
 79
     2
140
4.0
146
0.8
147
1.0
172
     1
178
     0
179
     8
271
     8
340
11
  0
ENDTAB
  0
TABLE
  2
BLOCK_RECORD
  5
1
330
0
100
AcDbSymbolTable
 70
    40
  0
BLOCK_RECORD
  5
1F
330
1
100
AcDbSymbolTableRecord
100
AcDbBlockTableRecord
  2
*Model_Space
340
22
  0
BLOCK_RECORD
  5
1B
330
1
100
AcDbSymbolTableRecord
100
AcDbBlockTableRecord
  2
*Paper_Space
340
1E
  0
BLOCK_RECORD
  5
23
330
1
100
AcDbSymbolTableRecord
100
AcDbBlockTableRecord
  2
*Paper_Space0
340
26
  0
BLOCK_RECORD
  5
49
330
1
100
AcDbSymbolTableRecord
100
AcDbBlockTableRecord
  2
JZB-1
340
0
102
{BLKREFS
331
477
102
}
  0
BLOCK_RECORD
  5
55
330
1
100
AcDbSymbolTableRecord
100
AcDbBlockTableRecord
  2
C20-2B-2
340
0
102
{BLKREFS
331
478
102
}
  0
BLOCK_RECORD
  5
65
330
1
100
AcDbSymbolTableRecord
100
AcDbBlockTableRecord
  2
JZB-3
340
0
102
{BLKREFS
331
479
102
}
  0
BLOCK_RECORD
  5
6F
330
1
100
AcDbSymbolTableRecord
100
AcDbBlockTableRecord
  2
HSK63-LPS-4
340
0
102
{BLKREFS
331
47A
102
}
  0
BLOCK_RECORD
  5
91
330
1
100
AcDbSymbolTableRecord
100
AcDbBlockTableRecord
  2
*D5
340
0
  0
BLOCK_RECORD
  5
A5
330
1
100
AcDbSymbolTableRecord
100
AcDbBlockTableRecord
  2
*D6
340
0
  0
BLOCK_RECORD
  5
B9
330
1
100
AcDbSymbolTableRecord
100
AcDbBlockTableRecord
  2
*D7
340
0
  0
BLOCK_RECORD
  5
CF
330
1
100
AcDbSymbolTableRecord
100
AcDbBlockTableRecord
  2
9C22-BD-5
340
0
102
{BLKREFS
331
47B
102
}
  0
BLOCK_RECORD
  5
147
330
1
100
AcDbSymbolTableRecord
100
AcDbBlockTableRecord
  2
*D9
340
0
  0
BLOCK_RECORD
  5
15B
330
1
100
AcDbSymbolTableRecord
100
AcDbBlockTableRecord
  2
*D10
340
0
  0
BLOCK_RECORD
  5
16F
330
1
100
AcDbSymbolTableRecord
100
AcDbBlockTableRecord
  2
*D11
340
0
  0
BLOCK_RECORD
  5
183
330
1
100
AcDbSymbolTableRecord
100
AcDbBlockTableRecord
  2
*D12
340
0
  0
BLOCK_RECORD
  5
197
330
1
100
AcDbSymbolTableRecord
100
AcDbBlockTableRecord
  2
*D13
340
0
  0
BLOCK_RECORD
  5
1AB
330
1
100
AcDbSymbolTableRecord
100
AcDbBlockTableRecord
  2
JZB-6
340
0
102
{BLKREFS
331
47C
102
}
  0
BLOCK_RECORD
  5
1DF
330
1
100
AcDbSymbolTableRecord
100
AcDbBlockTableRecord
  2
*D15
340
0
  0
BLOCK_RECORD
  5
1F3
330
1
100
AcDbSymbolTableRecord
100
AcDbBlockTableRecord
  2
*D16
340
0
  0
BLOCK_RECORD
  5
207
330
1
100
AcDbSymbolTableRecord
100
AcDbBlockTableRecord
  2
*D17
340
0
  0
BLOCK_RECORD
  5
21B
330
1
100
AcDbSymbolTableRecord
100
AcDbBlockTableRecord
  2
*D18
340
0
  0
BLOCK_RECORD
  5
22E
330
1
100
AcDbSymbolTableRecord
100
AcDbBlockTableRecord
  2
*D19
340
0
  0
BLOCK_RECORD
  5
242
330
1
100
AcDbSymbolTableRecord
100
AcDbBlockTableRecord
  2
HSK63A-7
340
0
102
{BLKREFS
331
47D
102
}
  0
BLOCK_RECORD
  5
28A
330
1
100
AcDbSymbolTableRecord
100
AcDbBlockTableRecord
  2
*D21
340
0
  0
BLOCK_RECORD
  5
29E
330
1
100
AcDbSymbolTableRecord
100
AcDbBlockTableRecord
  2
*D22
340
0
  0
BLOCK_RECORD
  5
2B2
330
1
100
AcDbSymbolTableRecord
100
AcDbBlockTableRecord
  2
*D23
340
0
  0
BLOCK_RECORD
  5
2C6
330
1
100
AcDbSymbolTableRecord
100
AcDbBlockTableRecord
  2
*D24
340
0
  0
BLOCK_RECORD
  5
2DA
330
1
100
AcDbSymbolTableRecord
100
AcDbBlockTableRecord
  2
*D25
340
0
  0
BLOCK_RECORD
  5
2EE
330
1
100
AcDbSymbolTableRecord
100
AcDbBlockTableRecord
  2
HSK63A-8
340
0
102
{BLKREFS
331
47E
102
}
  0
BLOCK_RECORD
  5
313
330
1
100
AcDbSymbolTableRecord
100
AcDbBlockTableRecord
  2
*D27
340
0
  0
BLOCK_RECORD
  5
327
330
1
100
AcDbSymbolTableRecord
100
AcDbBlockTableRecord
  2
*D28
340
0
  0
BLOCK_RECORD
  5
33B
330
1
100
AcDbSymbolTableRecord
100
AcDbBlockTableRecord
  2
DIM-10
340
0
102
{BLKREFS
331
3FE
102
}
  0
BLOCK_RECORD
  5
349
330
1
100
AcDbSymbolTableRecord
100
AcDbBlockTableRecord
  2
*D30
340
0
  0
BLOCK_RECORD
  5
35D
330
1
100
AcDbSymbolTableRecord
100
AcDbBlockTableRecord
  2
*D31
340
0
  0
BLOCK_RECORD
  5
371
330
1
100
AcDbSymbolTableRecord
100
AcDbBlockTableRecord
  2
*D32
340
0
  0
BLOCK_RECORD
  5
385
330
1
100
AcDbSymbolTableRecord
100
AcDbBlockTableRecord
  2
HSK63A-9
340
0
102
{BLKREFS
331
47F
102
}
  0
BLOCK_RECORD
  5
407
330
1
100
AcDbSymbolTableRecord
100
AcDbBlockTableRecord
  2
*D34
340
0
  0
BLOCK_RECORD
  5
41B
330
1
100
AcDbSymbolTableRecord
100
AcDbBlockTableRecord
  2
*D35
340
0
  0
BLOCK_RECORD
  5
429
330
1
100
AcDbSymbolTableRecord
100
AcDbBlockTableRecord
  2
*D36
340
0
  0
BLOCK_RECORD
  5
43D
330
1
100
AcDbSymbolTableRecord
100
AcDbBlockTableRecord
  2
*D37
340
0
  0
BLOCK_RECORD
  5
451
330
1
100
AcDbSymbolTableRecord
100
AcDbBlockTableRecord
  2
DIM-11
340
0
102
{BLKREFS
331
484
102
}
  0
BLOCK_RECORD
  5
464
330
1
100
AcDbSymbolTableRecord
100
AcDbBlockTableRecord
  2
DIM-12
340
0
102
{BLKREFS
331
485
102
}
  0
ENDTAB
  0
ENDSEC
  0
SECTION
  2
BLOCKS
  0
BLOCK
  5
20
330
1F
100
AcDbEntity
  8
0
100
AcDbBlockBegin
  2
*Model_Space
 70
     0
 10
0.0
 20
0.0
 30
0.0
  3
*Model_Space
  1

  0
ENDBLK
  5
21
330
1F
100
AcDbEntity
  8
0
100
AcDbBlockEnd
  0
BLOCK
  5
1C
330
1B
100
AcDbEntity
 67
     1
  8
0
100
AcDbBlockBegin
  2
*Paper_Space
 70
     0
 10
0.0
 20
0.0
 30
0.0
  3
*Paper_Space
  1

  0
ENDBLK
  5
1D
330
1B
100
AcDbEntity
 67
     1
  8
0
100
AcDbBlockEnd
  0
BLOCK
  5
24
330
23
100
AcDbEntity
  8
0
100
AcDbBlockBegin
  2
*Paper_Space0
 70
     0
 10
0.0
 20
0.0
 30
0.0
  3
*Paper_Space0
  1

  0
ENDBLK
  5
25
330
23
100
AcDbEntity
  8
0
100
AcDbBlockEnd
  0
BLOCK
  5
4A
330
49
100
AcDbEntity
  8
0
100
AcDbBlockBegin
  2
JZB-1
 70
     0
 10
0.0
 20
0.0
 30
0.0
  3
JZB-1
  1

  0
TEXT
  5
4C
330
49
100
AcDbEntity
  8
003
 62
     3
370
     9
100
AcDbText
 10
335.686665
 20
17.729249
 30
0.0
 40
3.2
  1
Ｎａｋａｉ
 41
0.833333
100
AcDbText
  0
TEXT
  5
4D
330
49
100
AcDbEntity
  8
003
 62
     3
370
     9
100
AcDbText
 10
244.686665
 20
11.604249
 30
0.0
 40
3.2
  1
１／１
 41
0.833333
100
AcDbText
  0
TEXT
  5
4E
330
49
100
AcDbEntity
  8
003
 62
     3
370
     9
100
AcDbText
 10
362.186665
 20
11.604249
 30
0.0
 40
3.2
  1
ＭＣＡ１
 41
0.833333
100
AcDbText
  0
TEXT
  5
4F
330
49
100
AcDbEntity
  8
003
 62
     3
370
     9
100
AcDbText
 10
229.686665
 20
30.254249
 30
0.0
 40
3.2
  1
Ｃ３／４－２Ｂ
 41
0.833333
100
AcDbText
  0
TEXT
  5
50
330
49
100
AcDbEntity
  8
003
 62
     3
370
     9
100
AcDbText
 10
270.686665
 20
16.754249
 30
0.0
 40
3.2
  1
ＨＳＫ６３Ａ－Ｃ３／４－７０Ｐ
 41
0.833333
100
AcDbText
  0
TEXT
  5
51
330
49
100
AcDbEntity
  8
003
 62
     3
370
     9
100
AcDbText
 10
270.686665
 20
34.454249
 30
0.0
 40
3.2
  1
ＨＩＧＨ　ＳＰＥＥＤ
 41
0.6875
100
AcDbText
  0
TEXT
  5
52
330
49
100
AcDbEntity
  8
003
 62
     3
370
     9
100
AcDbText
 10
270.686665
 20
30.254249
 30
0.0
 40
3.2
  1
ＭＵＬＴＩ　ＬＯＣＫ　ＭＩＬＬＩＮＧ　ＣＨＵＣＫ
 41
0.6875
100
AcDbText
  0
TEXT
  5
53
330
49
100
AcDbEntity
  8
003
 62
     3
370
     9
100
AcDbText
 10
244.686665
 20
6.104249
 30
0.0
 40
3.2
  1
２００８．０３．１７
 41
0.65
100
AcDbText
  0
TEXT
  5
54
330
49
100
AcDbEntity
  8
003
 62
     3
370
     9
100
AcDbText
 10
362.186665
 20
6.104249
 30
0.0
 40
3.2
  1
ＭＣＡ３３－２６０１３／０
 41
0.833333
100
AcDbText
  0
ENDBLK
  5
4B
330
49
100
AcDbEntity
  8
0
100
AcDbBlockEnd
  0
BLOCK
  5
56
330
55
100
AcDbEntity
  8
0
100
AcDbBlockBegin
  2
C20-2B-2
 70
     0
 10
0.0
 20
0.0
 30
0.0
  3
C20-2B-2
  1

  0
LINE
  5
58
330
55
100
AcDbEntity
  8
001
370
     9
100
AcDbLine
 10
194.1
 20
170.2
 30
0.0
 11
194.0
 21
170.2
 31
0.0
  0
LINE
  5
59
330
55
100
AcDbEntity
  8
001
370
     9
100
AcDbLine
 10
235.8
 20
157.4
 30
0.0
 11
237.0
 21
157.4
 31
0.0
  0
LINE
  5
5A
330
55
100
AcDbEntity
  8
001
370
     9
100
AcDbLine
 10
237.8
 20
158.25
 30
0.0
 11
237.0
 21
158.25
 31
0.0
  0
LINE
  5
5B
330
55
100
AcDbEntity
  8
001
370
     9
100
AcDbLine
 10
235.0
 20
158.25
 30
0.0
 11
235.8
 21
158.25
 31
0.0
  0
LINE
  5
5C
330
55
100
AcDbEntity
  8
001
370
     9
100
AcDbLine
 10
237.8
 20
158.25
 30
0.0
 11
238.0
 21
158.05
 31
0.0
  0
LINE
  5
5D
330
55
100
AcDbEntity
  8
001
370
     9
100
AcDbLine
 10
194.1
 20
117.8
 30
0.0
 11
194.1
 21
144.0
 31
0.0
  0
LINE
  5
5E
330
55
100
AcDbEntity
  8
001
370
     9
100
AcDbLine
 10
194.1
 20
170.2
 30
0.0
 11
194.1
 21
159.58125
 31
0.0
  0
LINE
  5
5F
330
55
100
AcDbEntity
  8
001
370
     9
100
AcDbLine
 10
194.1
 20
117.8
 30
0.0
 11
194.0
 21
117.8
 31
0.0
  0
LINE
  5
60
330
55
100
AcDbEntity
  8
001
370
     9
100
AcDbLine
 10
237.0
 20
157.4
 30
0.0
 11
237.0
 21
160.828934
 31
0.0
  0
LINE
  5
61
330
55
100
AcDbEntity
  8
001
370
     9
100
AcDbLine
 10
235.8
 20
157.4
 30
0.0
 11
235.8
 21
160.84768
 31
0.0
  0
LINE
  5
62
330
55
100
AcDbEntity
  8
001
370
     9
100
AcDbLine
 10
235.0
 20
158.25
 30
0.0
 11
235.0
 21
160.860178
 31
0.0
  0
LINE
  5
63
330
55
100
AcDbEntity
  8
001
370
     9
100
AcDbLine
 10
234.990523
 20
158.948586
 30
0.0
 11
194.100098
 21
159.587498
 31
0.0
  0
LINE
  5
64
330
55
100
AcDbEntity
  8
001
370
     9
100
AcDbLine
 10
238.0
 20
144.0
 30
0.0
 11
238.0
 21
158.05
 31
0.0
  0
ENDBLK
  5
57
330
55
100
AcDbEntity
  8
0
100
AcDbBlockEnd
  0
BLOCK
  5
66
330
65
100
AcDbEntity
  8
0
100
AcDbBlockBegin
  2
JZB-3
 70
     0
 10
0.0
 20
0.0
 30
0.0
  3
JZB-3
  1

  0
LINE
  5
68
330
65
100
AcDbEntity
  8
001
370
     9
100
AcDbLine
 10
189.0
 20
156.7
 30
0.0
 11
189.0
 21
144.0
 31
0.0
  0
LINE
  5
69
330
65
100
AcDbEntity
  8
001
370
     9
100
AcDbLine
 10
237.177276
 20
153.525
 30
0.0
 11
238.0
 21
154.0
 31
0.0
  0
LINE
  5
6A
330
65
100
AcDbEntity
  8
001
 62
     2
370
     9
100
AcDbLine
 10
237.177276
 20
150.525
 30
0.0
 11
237.177276
 21
153.525
 31
0.0
  0
LINE
  5
6B
330
65
100
AcDbEntity
  8
001
370
     9
100
AcDbLine
 10
189.0
 20
156.025
 30
0.0
 11
238.0
 21
156.025
 31
0.0
  0
LINE
  5
6C
330
65
100
AcDbEntity
  8
001
370
     9
100
AcDbLine
 10
189.0
 20
153.525
 30
0.0
 11
237.177276
 21
153.525
 31
0.0
  0
LINE
  5
6D
330
65
100
AcDbEntity
  8
001
370
     9
100
AcDbLine
 10
189.0
 20
156.7
 30
0.0
 11
186.0
 21
156.7
 31
0.0
  0
LINE
  5
6E
330
65
100
AcDbEntity
  8
001
370
     9
100
AcDbLine
 10
186.0
 20
152.5
 30
0.0
 11
186.0
 21
156.7
 31
0.0
  0
ENDBLK
  5
67
330
65
100
AcDbEntity
  8
0
100
AcDbBlockEnd
  0
BLOCK
  5
70
330
6F
100
AcDbEntity
  8
0
100
AcDbBlockBegin
  2
HSK63-LPS-4
 70
     0
 10
0.0
 20
0.0
 30
0.0
  3
HSK63-LPS-4
  1

  0
LINE
  5
72
330
6F
100
AcDbEntity
  8
001
 62
     2
370
     9
100
AcDbLine
 10
175.309401
 20
147.464102
 30
0.0
 11
186.0
 21
147.464102
 31
0.0
  0
LINE
  5
73
330
6F
100
AcDbEntity
  8
001
 62
     2
370
     9
100
AcDbLine
 10
175.309401
 20
145.732051
 30
0.0
 11
186.0
 21
145.732051
 31
0.0
  0
LINE
  5
74
330
6F
100
AcDbEntity
  8
001
 62
     2
370
    50
100
AcDbLine
 10
184.4
 20
148.05
 30
0.0
 11
184.4
 21
151.25
 31
0.0
  0
LINE
  5
75
330
6F
100
AcDbEntity
  8
001
 62
     2
370
    30
100
AcDbLine
 10
186.0
 20
150.55
 30
0.0
 11
184.4
 21
151.262366
 31
0.0
  0
LINE
  5
76
330
6F
100
AcDbEntity
  8
001
 62
     2
370
     9
100
AcDbLine
 10
186.0
 20
148.05
 30
0.0
 11
184.4
 21
148.05
 31
0.0
  0
LINE
  5
77
330
6F
100
AcDbEntity
  8
001
 62
     2
370
     9
100
AcDbLine
 10
186.0
 20
152.5
 30
0.0
 11
185.5
 21
153.0
 31
0.0
  0
LINE
  5
78
330
6F
100
AcDbEntity
  8
001
 62
     2
370
    30
100
AcDbLine
 10
176.5
 20
149.8
 30
0.0
 11
178.0
 21
149.8
 31
0.0
  0
LINE
  5
79
330
6F
100
AcDbEntity
  8
001
 62
     2
370
    50
100
AcDbLine
 10
178.0
 20
154.9
 30
0.0
 11
178.0
 21
149.8
 31
0.0
  0
LINE
  5
7A
330
6F
100
AcDbEntity
  8
001
 62
     2
370
    50
100
AcDbLine
 10
178.0
 20
154.9
 30
0.0
 11
178.1
 21
155.0
 31
0.0
  0
LINE
  5
7B
330
6F
100
AcDbEntity
  8
001
 62
     2
370
     9
100
AcDbLine
 10
182.5
 20
152.25
 30
0.0
 11
182.5
 21
153.0
 31
0.0
  0
LINE
  5
7C
330
6F
100
AcDbEntity
  8
001
 62
     2
370
     9
100
AcDbLine
 10
181.0
 20
152.25
 30
0.0
 11
182.5
 21
152.25
 31
0.0
  0
LINE
  5
7D
330
6F
100
AcDbEntity
  8
001
 62
     2
370
    30
100
AcDbLine
 10
182.5
 20
153.0
 30
0.0
 11
185.5
 21
153.0
 31
0.0
  0
LINE
  5
7E
330
6F
100
AcDbEntity
  8
001
 62
    21
370
    30
100
AcDbLine
 10
186.0
 20
152.5
 30
0.0
 11
182.5
 21
152.5
 31
0.0
  0
LINE
  5
7F
330
6F
100
AcDbEntity
  8
001
 62
     2
370
     9
100
AcDbLine
 10
181.0
 20
154.5
 30
0.0
 11
181.0
 21
152.25
 31
0.0
  0
LINE
  5
80
330
6F
100
AcDbEntity
  8
001
 62
     2
370
     9
100
AcDbLine
 10
180.5
 20
155.0
 30
0.0
 11
181.0
 21
154.5
 31
0.0
  0
LINE
  5
81
330
6F
100
AcDbEntity
  8
001
 62
     2
370
     9
100
AcDbLine
 10
180.5
 20
155.0
 30
0.0
 11
178.1
 21
155.0
 31
0.0
  0
CIRCLE
  5
82
330
6F
100
AcDbEntity
  8
001
 62
     2
370
    30
100
AcDbCircle
 10
185.35
 20
149.799494
 30
0.0
 40
0.95
  0
LINE
  5
83
330
6F
100
AcDbEntity
  8
001
 62
     2
370
     9
100
AcDbLine
 10
186.0
 20
149.106674
 30
0.0
 11
186.0
 21
144.0
 31
0.0
  0
LINE
  5
84
330
6F
100
AcDbEntity
  8
001
 62
     2
370
     9
100
AcDbLine
 10
186.0
 20
152.5
 30
0.0
 11
186.0
 21
150.492315
 31
0.0
  0
LINE
  5
85
330
6F
100
AcDbEntity
  8
001
  6
HIDDEN
 62
    21
370
     9
100
AcDbLine
 10
186.0
 20
150.492315
 30
0.0
 11
186.0
 21
149.106674
 31
0.0
  0
ARC
  5
86
330
6F
100
AcDbEntity
  8
001
 62
     2
370
     9
100
AcDbCircle
 10
156.894957
 20
147.0
 30
0.0
 40
3.0
100
AcDbArc
 50
90.0
 51
105.0
  0
LINE
  5
87
330
6F
100
AcDbEntity
  8
001
 62
     2
370
     9
100
AcDbLine
 10
156.1185
 20
149.897777
 30
0.0
 11
154.611771
 21
149.494051
 31
0.0
  0
ARC
  5
88
330
6F
100
AcDbEntity
  8
001
 62
     2
370
    50
100
AcDbCircle
 10
155.0
 20
148.045162
 30
0.0
 40
1.5
100
AcDbArc
 50
105.0
 51
180.0
  0
LINE
  5
89
330
6F
100
AcDbEntity
  8
001
 62
     2
370
    30
100
AcDbLine
 10
156.894957
 20
150.0
 30
0.0
 11
176.5
 21
150.0
 31
0.0
  0
LINE
  5
8A
330
6F
100
AcDbEntity
  8
001
 62
     2
370
    30
100
AcDbLine
 10
175.0
 20
148.0
 30
0.0
 11
153.673205
 21
148.0
 31
0.0
  0
LINE
  5
8B
330
6F
100
AcDbEntity
  8
001
 62
     2
370
     9
100
AcDbLine
 10
176.5
 20
149.8
 30
0.0
 11
176.5
 21
150.0
 31
0.0
  0
LINE
  5
8C
330
6F
100
AcDbEntity
  8
001
 62
     2
370
     9
100
AcDbLine
 10
175.0
 20
144.0
 30
0.0
 11
175.0
 21
148.0
 31
0.0
  0
LINE
  5
8D
330
6F
100
AcDbEntity
  8
001
 62
     2
370
     9
100
AcDbLine
 10
175.0
 20
148.0
 30
0.0
 11
175.309401
 21
147.464102
 31
0.0
  0
LINE
  5
8E
330
6F
100
AcDbEntity
  8
001
 62
     2
370
     9
100
AcDbLine
 10
175.309401
 20
147.464102
 30
0.0
 11
175.309401
 21
144.0
 31
0.0
  0
LINE
  5
8F
330
6F
100
AcDbEntity
  8
001
 62
     2
370
     9
100
AcDbLine
 10
153.5
 20
148.1
 30
0.0
 11
153.673205
 21
148.0
 31
0.0
  0
LINE
  5
90
330
6F
100
AcDbEntity
  8
001
 62
     2
370
    50
100
AcDbLine
 10
153.5
 20
144.0
 30
0.0
 11
153.5
 21
148.045162
 31
0.0
  0
ENDBLK
  5
71
330
6F
100
AcDbEntity
  8
0
100
AcDbBlockEnd
  0
BLOCK
  5
92
330
91
100
AcDbEntity
  8
0
100
AcDbBlockBegin
  2
*D5
 70
     1
 10
0.0
 20
0.0
 30
0.0
  3
*D5
  1

  0
LINE
  5
94
330
91
100
AcDbEntity
  8
002
 62
     2
370
     9
100
AcDbLine
 10
220.6
 20
118.25
 30
0.0
 11
281.0
 21
118.25
 31
0.0
  0
LINE
  5
95
330
91
100
AcDbEntity
  8
002
 62
     2
370
     9
100
AcDbLine
 10
220.6
 20
169.75
 30
0.0
 11
281.0
 21
169.75
 31
0.0
  0
LINE
  5
96
330
91
100
AcDbEntity
  8
002
 62
     2
370
     9
100
AcDbLine
 10
280.0
 20
118.25
 30
0.0
 11
280.0
 21
169.75
 31
0.0
  0
POLYLINE
  5
97
330
91
100
AcDbEntity
  8
002
 62
     2
370
     9
100
AcDb2dPolyline
 66
     1
 10
0.0
 20
0.0
 30
0.0
  0
VERTEX
  5
99
330
97
100
AcDbEntity
  8
002
 62
     2
370
     9
100
AcDbVertex
100
AcDb2dVertex
 10
280.401924
 20
119.75
 30
0.0
  0
VERTEX
  5
9A
330
97
100
AcDbEntity
  8
002
 62
     2
370
     9
100
AcDbVertex
100
AcDb2dVertex
 10
280.0
 20
118.25
 30
0.0
  0
VERTEX
  5
9B
330
97
100
AcDbEntity
  8
002
 62
     2
370
     9
100
AcDbVertex
100
AcDb2dVertex
 10
279.598076
 20
119.75
 30
0.0
  0
SEQEND
  5
98
330
97
100
AcDbEntity
  8
002
 62
     2
370
     9
  0
POLYLINE
  5
9C
330
91
100
AcDbEntity
  8
002
 62
     2
370
     9
100
AcDb2dPolyline
 66
     1
 10
0.0
 20
0.0
 30
0.0
  0
VERTEX
  5
9E
330
9C
100
AcDbEntity
  8
002
 62
     2
370
     9
100
AcDbVertex
100
AcDb2dVertex
 10
279.598076
 20
168.25
 30
0.0
  0
VERTEX
  5
9F
330
9C
100
AcDbEntity
  8
002
 62
     2
370
     9
100
AcDbVertex
100
AcDb2dVertex
 10
280.0
 20
169.75
 30
0.0
  0
VERTEX
  5
A0
330
9C
100
AcDbEntity
  8
002
 62
     2
370
     9
100
AcDbVertex
100
AcDb2dVertex
 10
280.401924
 20
168.25
 30
0.0
  0
SEQEND
  5
9D
330
9C
100
AcDbEntity
  8
002
 62
     2
370
     9
  0
MTEXT
  5
A1
330
91
100
AcDbEntity
  8
002
 62
     3
370
     9
100
AcDbMText
 10
277.0
 20
144.0
 30
0.0
 40
4.0
 41
0.0
 71
     5
 72
     1
  1
\W0.912162;%%c５１.５
 11
-4.371139000186241E-8
 21
0.999999999999999
 31
0.0
 73
     1
 44
1.0
  0
POINT
  5
A2
330
91
100
AcDbEntity
  8
002
 62
     2
370
     9
100
AcDbPoint
 10
220.6
 20
118.25
 30
0.0
  0
POINT
  5
A3
330
91
100
AcDbEntity
  8
002
 62
     2
370
     9
100
AcDbPoint
 10
220.6
 20
169.75
 30
0.0
  0
POINT
  5
A4
330
91
100
AcDbEntity
  8
002
 62
     2
370
     9
100
AcDbPoint
 10
280.0
 20
169.75
 30
0.0
  0
ENDBLK
  5
93
330
91
100
AcDbEntity
  8
0
100
AcDbBlockEnd
  0
BLOCK
  5
A6
330
A5
100
AcDbEntity
  8
0
100
AcDbBlockBegin
  2
*D6
 70
     1
 10
0.0
 20
0.0
 30
0.0
  3
*D6
  1

  0
LINE
  5
A8
330
A5
100
AcDbEntity
  8
002
 62
     2
370
     9
100
AcDbLine
 10
240.1
 20
123.5
 30
0.0
 11
273.0
 21
123.5
 31
0.0
  0
LINE
  5
A9
330
A5
100
AcDbEntity
  8
002
 62
     2
370
     9
100
AcDbLine
 10
240.1
 20
164.5
 30
0.0
 11
273.0
 21
164.5
 31
0.0
  0
LINE
  5
AA
330
A5
100
AcDbEntity
  8
002
 62
     2
370
     9
100
AcDbLine
 10
272.0
 20
123.5
 30
0.0
 11
272.0
 21
164.5
 31
0.0
  0
POLYLINE
  5
AB
330
A5
100
AcDbEntity
  8
002
 62
     2
370
     9
100
AcDb2dPolyline
 66
     1
 10
0.0
 20
0.0
 30
0.0
  0
VERTEX
  5
AD
330
AB
100
AcDbEntity
  8
002
 62
     2
370
     9
100
AcDbVertex
100
AcDb2dVertex
 10
272.401924
 20
125.0
 30
0.0
  0
VERTEX
  5
AE
330
AB
100
AcDbEntity
  8
002
 62
     2
370
     9
100
AcDbVertex
100
AcDb2dVertex
 10
272.0
 20
123.5
 30
0.0
  0
VERTEX
  5
AF
330
AB
100
AcDbEntity
  8
002
 62
     2
370
     9
100
AcDbVertex
100
AcDb2dVertex
 10
271.598076
 20
125.0
 30
0.0
  0
SEQEND
  5
AC
330
AB
100
AcDbEntity
  8
002
 62
     2
370
     9
  0
POLYLINE
  5
B0
330
A5
100
AcDbEntity
  8
002
 62
     2
370
     9
100
AcDb2dPolyline
 66
     1
 10
0.0
 20
0.0
 30
0.0
  0
VERTEX
  5
B2
330
B0
100
AcDbEntity
  8
002
 62
     2
370
     9
100
AcDbVertex
100
AcDb2dVertex
 10
271.598076
 20
163.0
 30
0.0
  0
VERTEX
  5
B3
330
B0
100
AcDbEntity
  8
002
 62
     2
370
     9
100
AcDbVertex
100
AcDb2dVertex
 10
272.0
 20
164.5
 30
0.0
  0
VERTEX
  5
B4
330
B0
100
AcDbEntity
  8
002
 62
     2
370
     9
100
AcDbVertex
100
AcDb2dVertex
 10
272.401924
 20
163.0
 30
0.0
  0
SEQEND
  5
B1
330
B0
100
AcDbEntity
  8
002
 62
     2
370
     9
  0
MTEXT
  5
B5
330
A5
100
AcDbEntity
  8
002
 62
     3
370
     9
100
AcDbMText
 10
269.0
 20
144.0
 30
0.0
 40
4.0
 41
0.0
 71
     5
 72
     1
  1
\W0.882353;%%c４１
 11
-4.371139000186241E-8
 21
0.999999999999999
 31
0.0
 73
     1
 44
1.0
  0
POINT
  5
B6
330
A5
100
AcDbEntity
  8
002
 62
     2
370
     9
100
AcDbPoint
 10
240.1
 20
123.5
 30
0.0
  0
POINT
  5
B7
330
A5
100
AcDbEntity
  8
002
 62
     2
370
     9
100
AcDbPoint
 10
240.1
 20
164.5
 30
0.0
  0
POINT
  5
B8
330
A5
100
AcDbEntity
  8
002
 62
     2
370
     9
100
AcDbPoint
 10
272.0
 20
164.5
 30
0.0
  0
ENDBLK
  5
A7
330
A5
100
AcDbEntity
  8
0
100
AcDbBlockEnd
  0
BLOCK
  5
BA
330
B9
100
AcDbEntity
  8
0
100
AcDbBlockBegin
  2
*D7
 70
     1
 10
0.0
 20
0.0
 30
0.0
  3
*D7
  1

  0
LINE
  5
BC
330
B9
100
AcDbEntity
  8
002
 62
     2
370
     9
100
AcDbLine
 10
239.1
 20
123.654701
 30
0.0
 11
239.1
 21
87.0
 31
0.0
  0
LINE
  5
BD
330
B9
100
AcDbEntity
  8
002
 62
     2
370
     9
100
AcDbLine
 10
238.0
 20
143.0
 30
0.0
 11
238.0
 21
87.0
 31
0.0
  0
LINE
  5
BE
330
B9
100
AcDbEntity
  8
002
 62
     2
370
     9
100
AcDbLine
 10
239.1
 20
88.0
 30
0.0
 11
238.0
 21
88.0
 31
0.0
  0
POLYLINE
  5
BF
330
B9
100
AcDbEntity
  8
002
 62
     2
370
     9
100
AcDb2dPolyline
 66
     1
 10
0.0
 20
0.0
 30
0.0
  0
VERTEX
  5
C1
330
BF
100
AcDbEntity
  8
002
 62
     2
370
     9
100
AcDbVertex
100
AcDb2dVertex
 10
240.6
 20
87.598076
 30
0.0
  0
VERTEX
  5
C2
330
BF
100
AcDbEntity
  8
002
 62
     2
370
     9
100
AcDbVertex
100
AcDb2dVertex
 10
239.1
 20
88.0
 30
0.0
  0
VERTEX
  5
C3
330
BF
100
AcDbEntity
  8
002
 62
     2
370
     9
100
AcDbVertex
100
AcDb2dVertex
 10
240.6
 20
88.401924
 30
0.0
  0
SEQEND
  5
C0
330
BF
100
AcDbEntity
  8
002
 62
     2
370
     9
  0
POLYLINE
  5
C4
330
B9
100
AcDbEntity
  8
002
 62
     2
370
     9
100
AcDb2dPolyline
 66
     1
 10
0.0
 20
0.0
 30
0.0
  0
VERTEX
  5
C6
330
C4
100
AcDbEntity
  8
002
 62
     2
370
     9
100
AcDbVertex
100
AcDb2dVertex
 10
236.5
 20
88.401924
 30
0.0
  0
VERTEX
  5
C7
330
C4
100
AcDbEntity
  8
002
 62
     2
370
     9
100
AcDbVertex
100
AcDb2dVertex
 10
238.0
 20
88.0
 30
0.0
  0
VERTEX
  5
C8
330
C4
100
AcDbEntity
  8
002
 62
     2
370
     9
100
AcDbVertex
100
AcDb2dVertex
 10
236.5
 20
87.598076
 30
0.0
  0
SEQEND
  5
C5
330
C4
100
AcDbEntity
  8
002
 62
     2
370
     9
  0
MTEXT
  5
C9
330
B9
100
AcDbEntity
  8
002
 62
     3
370
     9
100
AcDbMText
 10
247.05
 20
90.6
 30
0.0
 40
3.2
 41
0.0
 71
     5
 72
     1
  1
\W0.876623;（１.１）
 73
     1
 44
1.0
  0
POINT
  5
CA
330
B9
100
AcDbEntity
  8
002
 62
     2
370
     9
100
AcDbPoint
 10
239.1
 20
123.654701
 30
0.0
  0
POINT
  5
CB
330
B9
100
AcDbEntity
  8
002
 62
     2
370
     9
100
AcDbPoint
 10
238.0
 20
143.0
 30
0.0
  0
POINT
  5
CC
330
B9
100
AcDbEntity
  8
002
 62
     2
370
     9
100
AcDbPoint
 10
238.0
 20
88.0
 30
0.0
  0
LINE
  5
CD
330
B9
100
AcDbEntity
  8
002
 62
     2
370
     9
100
AcDbLine
 10
239.1
 20
88.0
 30
0.0
 11
254.25
 21
88.0
 31
0.0
  0
LINE
  5
CE
330
B9
100
AcDbEntity
  8
002
 62
     2
370
     9
100
AcDbLine
 10
238.0
 20
88.0
 30
0.0
 11
235.5
 21
88.0
 31
0.0
  0
ENDBLK
  5
BB
330
B9
100
AcDbEntity
  8
0
100
AcDbBlockEnd
  0
BLOCK
  5
D0
330
CF
100
AcDbEntity
  8
0
100
AcDbBlockBegin
  2
9C22-BD-5
 70
     0
 10
0.0
 20
0.0
 30
0.0
  3
9C22-BD-5
  1

  0
LINE
  5
D2
330
CF
100
AcDbEntity
  8
001
 62
     2
370
    30
100
AcDbLine
 10
194.6
 20
162.0
 30
0.0
 11
194.4
 21
162.2
 31
0.0
  0
LINE
  5
D3
330
CF
100
AcDbEntity
  8
001
 62
     2
370
    30
100
AcDbLine
 10
194.4
 20
159.582812
 30
0.0
 11
194.4
 21
166.75
 31
0.0
  0
LINE
  5
D4
330
CF
100
AcDbEntity
  8
001
370
    50
100
AcDbLine
 10
195.1
 20
159.571875
 30
0.0
 11
195.1
 21
162.5
 31
0.0
  0
LINE
  5
D5
330
CF
100
AcDbEntity
  8
001
370
    50
100
AcDbLine
 10
199.1
 20
159.509375
 30
0.0
 11
199.1
 21
162.0
 31
0.0
  0
LINE
  5
D6
330
CF
100
AcDbEntity
  8
001
370
    50
100
AcDbLine
 10
198.6
 20
159.517187
 30
0.0
 11
198.6
 21
163.0
 31
0.0
  0
LINE
  5
D7
330
CF
100
AcDbEntity
  8
001
370
    50
100
AcDbLine
 10
197.3
 20
159.5375
 30
0.0
 11
197.3
 21
163.0
 31
0.0
  0
LINE
  5
D8
330
CF
100
AcDbEntity
  8
001
370
    50
100
AcDbLine
 10
196.1
 20
159.55625
 30
0.0
 11
196.1
 21
162.5
 31
0.0
  0
LINE
  5
D9
330
CF
100
AcDbEntity
  8
001
370
    50
100
AcDbLine
 10
195.1
 20
118.75
 30
0.0
 11
195.6
 21
118.75
 31
0.0
  0
LINE
  5
DA
330
CF
100
AcDbEntity
  8
001
370
    50
100
AcDbLine
 10
195.6
 20
118.75
 30
0.0
 11
196.1
 21
118.25
 31
0.0
  0
LINE
  5
DB
330
CF
100
AcDbEntity
  8
001
370
    50
100
AcDbLine
 10
220.1
 20
118.75
 30
0.0
 11
219.6
 21
118.25
 31
0.0
  0
LINE
  5
DC
330
CF
100
AcDbEntity
  8
001
370
    50
100
AcDbLine
 10
203.1
 20
118.25
 30
0.0
 11
203.6
 21
118.75
 31
0.0
  0
LINE
  5
DD
330
CF
100
AcDbEntity
  8
001
370
    50
100
AcDbLine
 10
214.6
 20
118.25
 30
0.0
 11
214.1
 21
118.75
 31
0.0
  0
ARC
  5
DE
330
CF
100
AcDbEntity
  8
001
370
    50
100
AcDbCircle
 10
195.1
 20
119.75
 30
0.0
 40
1.0
100
AcDbArc
 50
180.0
 51
270.0
  0
LINE
  5
DF
330
CF
100
AcDbEntity
  8
001
 62
     2
370
    50
100
AcDbLine
 10
196.1
 20
118.25
 30
0.0
 11
196.1
 21
123.65
 31
0.0
  0
LINE
  5
E0
330
CF
100
AcDbEntity
  8
001
 62
     2
370
    50
100
AcDbLine
 10
203.1
 20
118.25
 30
0.0
 11
203.1
 21
123.65
 31
0.0
  0
LINE
  5
E1
330
CF
100
AcDbEntity
  8
001
 62
     2
370
    50
100
AcDbLine
 10
219.6
 20
118.25
 30
0.0
 11
219.6
 21
123.65
 31
0.0
  0
LINE
  5
E2
330
CF
100
AcDbEntity
  8
001
 62
     2
370
    50
100
AcDbLine
 10
214.6
 20
118.25
 30
0.0
 11
214.6
 21
123.65
 31
0.0
  0
LINE
  5
E3
330
CF
100
AcDbEntity
  8
001
370
    50
100
AcDbLine
 10
199.1
 20
161.421
 30
0.0
 11
238.084
 21
160.812
 31
0.0
  0
LINE
  5
E4
330
CF
100
AcDbEntity
  8
001
370
    50
100
AcDbLine
 10
199.1
 20
162.0
 30
0.0
 11
198.6
 21
162.0
 31
0.0
  0
LINE
  5
E5
330
CF
100
AcDbEntity
  8
001
370
    50
100
AcDbLine
 10
197.3
 20
162.0
 30
0.0
 11
196.1
 21
162.0
 31
0.0
  0
LINE
  5
E6
330
CF
100
AcDbEntity
  8
001
 62
     2
370
    50
100
AcDbLine
 10
194.6
 20
162.0
 30
0.0
 11
195.1
 21
162.0
 31
0.0
  0
LINE
  5
E7
330
CF
100
AcDbEntity
  8
001
370
    50
100
AcDbLine
 10
198.6
 20
163.0
 30
0.0
 11
197.3
 21
163.0
 31
0.0
  0
LINE
  5
E8
330
CF
100
AcDbEntity
  8
001
370
    50
100
AcDbLine
 10
196.1
 20
162.5
 30
0.0
 11
195.1
 21
162.5
 31
0.0
  0
ARC
  5
E9
330
CF
100
AcDbEntity
  8
001
370
    50
100
AcDbCircle
 10
238.1
 20
161.812
 30
0.0
 40
1.0
100
AcDbArc
 50
269.105
 51
0.0
  0
LINE
  5
EA
330
CF
100
AcDbEntity
  8
001
370
    50
100
AcDbLine
 10
196.1
 20
118.25
 30
0.0
 11
203.1
 21
118.25
 31
0.0
  0
LINE
  5
EB
330
CF
100
AcDbEntity
  8
001
370
    50
100
AcDbLine
 10
203.6
 20
118.75
 30
0.0
 11
214.1
 21
118.75
 31
0.0
  0
LINE
  5
EC
330
CF
100
AcDbEntity
  8
001
370
    50
100
AcDbLine
 10
214.6
 20
118.25
 30
0.0
 11
219.6
 21
118.25
 31
0.0
  0
LINE
  5
ED
330
CF
100
AcDbEntity
  8
001
370
    50
100
AcDbLine
 10
220.1
 20
143.5
 30
0.0
 11
220.1
 21
118.75
 31
0.0
  0
LINE
  5
EE
330
CF
100
AcDbEntity
  8
001
370
     9
100
AcDbLine
 10
238.1
 20
122.92265
 30
0.0
 11
232.364089
 21
119.61102
 31
0.0
  0
LINE
  5
EF
330
CF
100
AcDbEntity
  8
001
370
     9
100
AcDbLine
 10
231.468761
 20
119.345811
 30
0.0
 11
220.1
 21
118.75
 31
0.0
  0
LINE
  5
F0
330
CF
100
AcDbEntity
  8
001
370
    50
100
AcDbLine
 10
203.6
 20
169.25
 30
0.0
 11
214.1
 21
169.25
 31
0.0
  0
LINE
  5
F1
330
CF
100
AcDbEntity
  8
001
370
    50
100
AcDbLine
 10
195.1
 20
169.25
 30
0.0
 11
195.6
 21
169.25
 31
0.0
  0
LINE
  5
F2
330
CF
100
AcDbEntity
  8
001
370
    50
100
AcDbLine
 10
195.6
 20
169.25
 30
0.0
 11
196.1
 21
169.75
 31
0.0
  0
LINE
  5
F3
330
CF
100
AcDbEntity
  8
001
370
    50
100
AcDbLine
 10
220.1
 20
169.25
 30
0.0
 11
219.6
 21
169.75
 31
0.0
  0
LINE
  5
F4
330
CF
100
AcDbEntity
  8
001
370
    50
100
AcDbLine
 10
203.1
 20
169.75
 30
0.0
 11
203.6
 21
169.25
 31
0.0
  0
LINE
  5
F5
330
CF
100
AcDbEntity
  8
001
370
    50
100
AcDbLine
 10
214.6
 20
169.75
 30
0.0
 11
214.1
 21
169.25
 31
0.0
  0
ARC
  5
F6
330
CF
100
AcDbEntity
  8
001
370
    50
100
AcDbCircle
 10
195.1
 20
168.25
 30
0.0
 40
1.0
100
AcDbArc
 50
90.0
 51
180.0
  0
LINE
  5
F7
330
CF
100
AcDbEntity
  8
001
370
    50
100
AcDbLine
 10
196.1
 20
169.75
 30
0.0
 11
203.1
 21
169.75
 31
0.0
  0
LINE
  5
F8
330
CF
100
AcDbEntity
  8
001
370
    50
100
AcDbLine
 10
203.6
 20
169.25
 30
0.0
 11
214.1
 21
169.25
 31
0.0
  0
LINE
  5
F9
330
CF
100
AcDbEntity
  8
001
370
    50
100
AcDbLine
 10
214.6
 20
169.75
 30
0.0
 11
219.6
 21
169.75
 31
0.0
  0
LINE
  5
FA
330
CF
100
AcDbEntity
  8
001
370
     9
100
AcDbLine
 10
232.364089
 20
168.38898
 30
0.0
 11
238.1
 21
165.07735
 31
0.0
  0
LINE
  5
FB
330
CF
100
AcDbEntity
  8
001
370
     9
100
AcDbLine
 10
231.468761
 20
168.654189
 30
0.0
 11
220.1
 21
169.25
 31
0.0
  0
LINE
  5
FC
330
CF
100
AcDbEntity
  8
001
370
     9
100
AcDbLine
 10
214.659475
 20
124.465516
 30
0.0
 11
203.040525
 21
124.465516
 31
0.0
  0
ARC
  5
FD
330
CF
100
AcDbEntity
  8
001
370
     9
100
AcDbCircle
 10
208.85
 20
175.25
 30
0.0
 40
8.0
100
AcDbArc
 50
223.432537
 51
316.567463
  0
ARC
  5
FE
330
CF
100
AcDbEntity
  8
001
370
     9
100
AcDbCircle
 10
208.85
 20
112.407165
 30
0.0
 40
13.38483543659455
100
AcDbArc
 50
64.276152
 51
115.723848
  0
LINE
  5
FF
330
CF
100
AcDbEntity
  8
001
370
     9
100
AcDbLine
 10
214.659475
 20
141.5
 30
0.0
 11
214.659475
 21
144.0
 31
0.0
  0
LINE
  5
100
330
CF
100
AcDbEntity
  8
001
370
     9
100
AcDbLine
 10
203.040525
 20
141.5
 30
0.0
 11
203.040525
 21
144.0
 31
0.0
  0
LINE
  5
101
330
CF
100
AcDbEntity
  8
001
370
     9
100
AcDbLine
 10
214.659475
 20
141.5
 30
0.0
 11
203.040525
 21
141.5
 31
0.0
  0
LINE
  5
102
330
CF
100
AcDbEntity
  8
001
370
     9
100
AcDbLine
 10
214.659475
 20
124.465516
 30
0.0
 11
214.659475
 21
128.001049
 31
0.0
  0
LINE
  5
103
330
CF
100
AcDbEntity
  8
001
370
    50
100
AcDbLine
 10
214.1
 20
141.5
 30
0.0
 11
214.1
 21
128.001049
 31
0.0
  0
LINE
  5
104
330
CF
100
AcDbEntity
  8
001
370
     9
100
AcDbLine
 10
203.040525
 20
124.465516
 30
0.0
 11
203.040525
 21
128.001049
 31
0.0
  0
LINE
  5
105
330
CF
100
AcDbEntity
  8
001
370
    50
100
AcDbLine
 10
203.6
 20
141.5
 30
0.0
 11
203.6
 21
128.001049
 31
0.0
  0
LINE
  5
106
330
CF
100
AcDbEntity
  8
001
370
     9
100
AcDbLine
 10
203.040525
 20
128.001049
 30
0.0
 11
214.659475
 21
128.001049
 31
0.0
  0
LINE
  5
107
330
CF
100
AcDbEntity
  8
001
370
    50
100
AcDbLine
 10
203.6
 20
124.465516
 30
0.0
 11
203.6
 21
118.75
 31
0.0
  0
ARC
  5
108
330
CF
100
AcDbEntity
  8
001
370
     9
100
AcDbCircle
 10
231.364089
 20
121.343071
 30
0.0
 40
2.0
100
AcDbArc
 50
273.0
 51
300.0
  0
ARC
  5
109
330
CF
100
AcDbEntity
  8
001
370
     9
100
AcDbCircle
 10
237.1
 20
124.654701
 30
0.0
 40
2.0
100
AcDbArc
 50
300.0
 51
0.0
  0
ARC
  5
10A
330
CF
100
AcDbEntity
  8
001
370
    50
100
AcDbCircle
 10
237.1
 20
163.345299
 30
0.0
 40
2.0
100
AcDbArc
 50
0.0
 51
60.0
  0
ARC
  5
10B
330
CF
100
AcDbEntity
  8
001
370
     9
100
AcDbCircle
 10
231.364089
 20
166.656929
 30
0.0
 40
2.0
100
AcDbArc
 50
60.0
 51
87.0
  0
LINE
  5
10C
330
CF
100
AcDbEntity
  8
001
370
    50
100
AcDbLine
 10
214.1
 20
124.465516
 30
0.0
 11
214.1
 21
118.75
 31
0.0
  0
LINE
  5
10D
330
CF
100
AcDbEntity
  8
001
370
    50
100
AcDbLine
 10
195.6
 20
144.0
 30
0.0
 11
195.6
 21
118.75
 31
0.0
  0
LINE
  5
10E
330
CF
100
AcDbEntity
  8
001
 62
    21
370
     9
100
AcDbLine
 10
202.024366
 20
118.25
 30
0.0
 11
203.1
 21
119.325634
 31
0.0
  0
LINE
  5
10F
330
CF
100
AcDbEntity
  8
001
 62
    21
370
     9
100
AcDbLine
 10
200.610153
 20
118.25
 30
0.0
 11
203.1
 21
120.739847
 31
0.0
  0
LINE
  5
110
330
CF
100
AcDbEntity
  8
001
 62
    21
370
     9
100
AcDbLine
 10
199.195939
 20
118.25
 30
0.0
 11
203.1
 21
122.154061
 31
0.0
  0
LINE
  5
111
330
CF
100
AcDbEntity
  8
001
 62
    21
370
     9
100
AcDbLine
 10
197.781726
 20
118.25
 30
0.0
 11
203.1
 21
123.568274
 31
0.0
  0
LINE
  5
112
330
CF
100
AcDbEntity
  8
001
 62
    21
370
     9
100
AcDbLine
 10
196.367512
 20
118.25
 30
0.0
 11
201.767512
 21
123.65
 31
0.0
  0
LINE
  5
113
330
CF
100
AcDbEntity
  8
001
 62
    21
370
     9
100
AcDbLine
 10
196.1
 20
119.396701
 30
0.0
 11
200.353299
 21
123.65
 31
0.0
  0
LINE
  5
114
330
CF
100
AcDbEntity
  8
001
 62
    21
370
     9
100
AcDbLine
 10
196.1
 20
120.810915
 30
0.0
 11
198.939085
 21
123.65
 31
0.0
  0
LINE
  5
115
330
CF
100
AcDbEntity
  8
001
 62
    21
370
     9
100
AcDbLine
 10
196.1
 20
122.225129
 30
0.0
 11
197.524871
 21
123.65
 31
0.0
  0
LINE
  5
116
330
CF
100
AcDbEntity
  8
001
 62
    21
370
     9
100
AcDbLine
 10
196.1
 20
123.639342
 30
0.0
 11
196.110658
 21
123.65
 31
0.0
  0
LINE
  5
117
330
CF
100
AcDbEntity
  8
001
 62
    21
370
     9
100
AcDbLine
 10
197.248203
 20
118.25
 30
0.0
 11
196.1
 21
119.398203
 31
0.0
  0
LINE
  5
118
330
CF
100
AcDbEntity
  8
001
 62
    21
370
     9
100
AcDbLine
 10
198.662416
 20
118.25
 30
0.0
 11
196.1
 21
120.812416
 31
0.0
  0
LINE
  5
119
330
CF
100
AcDbEntity
  8
001
 62
    21
370
     9
100
AcDbLine
 10
200.07663
 20
118.25
 30
0.0
 11
196.1
 21
122.22663
 31
0.0
  0
LINE
  5
11A
330
CF
100
AcDbEntity
  8
001
 62
    21
370
     9
100
AcDbLine
 10
201.490843
 20
118.25
 30
0.0
 11
196.1
 21
123.640843
 31
0.0
  0
LINE
  5
11B
330
CF
100
AcDbEntity
  8
001
 62
    21
370
     9
100
AcDbLine
 10
202.905057
 20
118.25
 30
0.0
 11
197.505057
 21
123.65
 31
0.0
  0
LINE
  5
11C
330
CF
100
AcDbEntity
  8
001
 62
    21
370
     9
100
AcDbLine
 10
203.1
 20
119.469271
 30
0.0
 11
198.919271
 21
123.65
 31
0.0
  0
LINE
  5
11D
330
CF
100
AcDbEntity
  8
001
 62
    21
370
     9
100
AcDbLine
 10
203.1
 20
120.883484
 30
0.0
 11
200.333484
 21
123.65
 31
0.0
  0
LINE
  5
11E
330
CF
100
AcDbEntity
  8
001
 62
    21
370
     9
100
AcDbLine
 10
203.1
 20
122.297698
 30
0.0
 11
201.747698
 21
123.65
 31
0.0
  0
LINE
  5
11F
330
CF
100
AcDbEntity
  8
001
 62
    21
370
     9
100
AcDbLine
 10
218.994929
 20
118.25
 30
0.0
 11
219.6
 21
118.855071
 31
0.0
  0
LINE
  5
120
330
CF
100
AcDbEntity
  8
001
 62
    21
370
     9
100
AcDbLine
 10
217.580716
 20
118.25
 30
0.0
 11
219.6
 21
120.269284
 31
0.0
  0
LINE
  5
121
330
CF
100
AcDbEntity
  8
001
 62
    21
370
     9
100
AcDbLine
 10
216.166502
 20
118.25
 30
0.0
 11
219.6
 21
121.683498
 31
0.0
  0
LINE
  5
122
330
CF
100
AcDbEntity
  8
001
 62
    21
370
     9
100
AcDbLine
 10
214.752288
 20
118.25
 30
0.0
 11
219.6
 21
123.097712
 31
0.0
  0
LINE
  5
123
330
CF
100
AcDbEntity
  8
001
 62
    21
370
     9
100
AcDbLine
 10
214.6
 20
119.511925
 30
0.0
 11
218.738075
 21
123.65
 31
0.0
  0
LINE
  5
124
330
CF
100
AcDbEntity
  8
001
 62
    21
370
     9
100
AcDbLine
 10
214.6
 20
120.926139
 30
0.0
 11
217.323861
 21
123.65
 31
0.0
  0
LINE
  5
125
330
CF
100
AcDbEntity
  8
001
 62
    21
370
     9
100
AcDbLine
 10
214.6
 20
122.340352
 30
0.0
 11
215.909648
 21
123.65
 31
0.0
  0
LINE
  5
126
330
CF
100
AcDbEntity
  8
001
 62
    21
370
     9
100
AcDbLine
 10
215.632979
 20
118.25
 30
0.0
 11
214.6
 21
119.282979
 31
0.0
  0
LINE
  5
127
330
CF
100
AcDbEntity
  8
001
 62
    21
370
     9
100
AcDbLine
 10
217.047193
 20
118.25
 30
0.0
 11
214.6
 21
120.697193
 31
0.0
  0
LINE
  5
128
330
CF
100
AcDbEntity
  8
001
 62
    21
370
     9
100
AcDbLine
 10
218.461406
 20
118.25
 30
0.0
 11
214.6
 21
122.111406
 31
0.0
  0
LINE
  5
129
330
CF
100
AcDbEntity
  8
001
 62
    21
370
     9
100
AcDbLine
 10
219.6
 20
118.52562
 30
0.0
 11
214.6
 21
123.52562
 31
0.0
  0
LINE
  5
12A
330
CF
100
AcDbEntity
  8
001
 62
    21
370
     9
100
AcDbLine
 10
219.6
 20
119.939833
 30
0.0
 11
215.889833
 21
123.65
 31
0.0
  0
LINE
  5
12B
330
CF
100
AcDbEntity
  8
001
 62
    21
370
     9
100
AcDbLine
 10
219.6
 20
121.354047
 30
0.0
 11
217.304047
 21
123.65
 31
0.0
  0
LINE
  5
12C
330
CF
100
AcDbEntity
  8
001
 62
    21
370
     9
100
AcDbLine
 10
219.6
 20
122.76826
 30
0.0
 11
218.71826
 21
123.65
 31
0.0
  0
LINE
  5
12D
330
CF
100
AcDbEntity
  8
001
370
    50
100
AcDbLine
 10
194.1
 20
119.75
 30
0.0
 11
194.1
 21
144.0
 31
0.0
  0
LINE
  5
12E
330
CF
100
AcDbEntity
  8
001
370
    50
100
AcDbLine
 10
239.1
 20
163.345299
 30
0.0
 11
239.1
 21
124.654701
 31
0.0
  0
LINE
  5
12F
330
CF
100
AcDbEntity
  8
001
370
     9
100
AcDbLine
 10
231.94826
 20
120.430286
 30
0.0
 11
231.94826
 21
144.0
 31
0.0
  0
LINE
  5
130
330
CF
100
AcDbEntity
  8
001
 62
     2
370
    30
100
AcDbLine
 10
194.4
 20
166.75
 30
0.0
 11
194.1
 21
166.75
 31
0.0
  0
LINE
  5
131
330
CF
100
AcDbEntity
  8
001
370
    50
100
AcDbLine
 10
194.1
 20
159.5875
 30
0.0
 11
194.1
 21
168.25
 31
0.0
  0
LINE
  5
132
330
CF
100
AcDbEntity
  8
001
370
    50
100
AcDbLine
 10
194.1
 20
159.5875
 30
0.0
 11
194.1
 21
167.0
 31
0.0
  0
DIMENSION
  5
133
330
CF
100
AcDbEntity
  8
002
 62
     2
370
     9
100
AcDbDimension
  2
*D5
 10
280.0
 20
169.75
 30
0.0
 11
277.0
 21
144.0
 31
0.0
 70
   160
  1
\W0.912162;%%c５１.５
 71
     5
 42
-1.0
  3
Standard
100
AcDbAlignedDimension
 13
220.6
 23
118.25
 33
0.0
 14
220.6
 24
169.75
 34
0.0
 50
90.0
100
AcDbRotatedDimension
  0
TEXT
  5
134
330
CF
100
AcDbEntity
  8
002
 62
     3
370
     9
100
AcDbText
 10
260.788004
 20
153.098225
 30
0.0
 40
4.0
  1
３０%%d
 50
74.999999
 41
0.880435
100
AcDbText
  0
POLYLINE
  5
135
330
CF
100
AcDbEntity
  8
002
 62
     2
370
     9
100
AcDb2dPolyline
 66
     1
 10
0.0
 20
0.0
 30
0.0
  0
VERTEX
  5
137
330
135
100
AcDbEntity
  8
002
 62
     2
370
     9
100
AcDbVertex
100
AcDb2dVertex
 10
261.728541
 20
153.180648
 30
0.0
  0
VERTEX
  5
138
330
135
100
AcDbEntity
  8
002
 62
     2
370
     9
100
AcDbVertex
100
AcDb2dVertex
 10
260.664033
 20
152.05
 30
0.0
  0
VERTEX
  5
139
330
135
100
AcDbEntity
  8
002
 62
     2
370
     9
100
AcDbVertex
100
AcDb2dVertex
 10
261.0206
 20
153.561424
 30
0.0
  0
SEQEND
  5
136
330
135
100
AcDbEntity
  8
002
 62
     2
370
     9
  0
POLYLINE
  5
13A
330
CF
100
AcDbEntity
  8
002
 62
     2
370
     9
100
AcDb2dPolyline
 66
     1
 10
0.0
 20
0.0
 30
0.0
  0
VERTEX
  5
13C
330
13A
100
AcDbEntity
  8
002
 62
     2
370
     9
100
AcDbVertex
100
AcDb2dVertex
 10
263.553085
 20
163.012785
 30
0.0
  0
VERTEX
  5
13D
330
13A
100
AcDbEntity
  8
002
 62
     2
370
     9
100
AcDbVertex
100
AcDb2dVertex
 10
264.0
 20
164.5
 30
0.0
  0
VERTEX
  5
13E
330
13A
100
AcDbEntity
  8
002
 62
     2
370
     9
100
AcDbVertex
100
AcDb2dVertex
 10
264.356568
 20
162.988576
 30
0.0
  0
SEQEND
  5
13B
330
13A
100
AcDbEntity
  8
002
 62
     2
370
     9
  0
ARC
  5
13F
330
CF
100
AcDbEntity
  8
002
 62
     2
370
     9
100
AcDbCircle
 10
239.1
 20
164.5
 30
0.0
 40
24.89999999999996
100
AcDbArc
 50
330.0
 51
0.0
  0
POLYLINE
  5
140
330
CF
100
AcDbEntity
  8
002
 62
     2
370
     9
100
AcDb2dPolyline
 66
     1
 10
0.0
 20
0.0
 30
0.0
  0
VERTEX
  5
142
330
140
100
AcDbEntity
  8
002
 62
     2
370
     9
100
AcDbVertex
100
AcDb2dVertex
 10
238.966025
 20
164.57735
 30
0.0
  0
VERTEX
  5
143
330
140
100
AcDbEntity
  8
002
 62
     2
370
     9
100
AcDbVertex
100
AcDb2dVertex
 10
260.664033
 20
152.05
 30
0.0
  0
VERTEX
  5
144
330
140
100
AcDbEntity
  8
002
 62
     2
370
     9
100
AcDbVertex
100
AcDb2dVertex
 10
261.530058
 20
151.55
 30
0.0
  0
SEQEND
  5
141
330
140
100
AcDbEntity
  8
002
 62
     2
370
     9
  0
DIMENSION
  5
145
330
CF
100
AcDbEntity
  8
002
 62
     2
370
     9
100
AcDbDimension
  2
*D6
 10
272.0
 20
164.5
 30
0.0
 11
269.0
 21
144.0
 31
0.0
 70
   160
  1
\W0.882353;%%c４１
 71
     5
 42
-1.0
  3
Standard
100
AcDbAlignedDimension
 13
240.1
 23
123.5
 33
0.0
 14
240.1
 24
164.5
 34
0.0
 50
90.0
100
AcDbRotatedDimension
  0
DIMENSION
  5
146
330
CF
100
AcDbEntity
  8
002
 62
     2
370
     9
100
AcDbDimension
  2
*D7
 10
238.0
 20
88.0
 30
0.0
 11
247.05
 21
90.6
 31
0.0
 70
   160
  1
\W0.876623;（１.１）
 71
     5
 42
-1.0
  3
Standard
100
AcDbAlignedDimension
 13
239.1
 23
123.654701
 33
0.0
 14
238.0
 24
143.0
 34
0.0
 50
180.0
100
AcDbRotatedDimension
  0
ENDBLK
  5
D1
330
CF
100
AcDbEntity
  8
0
100
AcDbBlockEnd
  0
BLOCK
  5
148
330
147
100
AcDbEntity
  8
0
100
AcDbBlockBegin
  2
*D9
 70
     1
 10
0.0
 20
0.0
 30
0.0
  3
*D9
  1

  0
LINE
  5
14A
330
147
100
AcDbEntity
  8
002
 62
     2
370
     9
100
AcDbLine
 10
57.000069
 20
170.49991
 30
0.0
 11
97.000119
 21
170.49973
 31
0.0
  0
LINE
  5
14B
330
147
100
AcDbEntity
  8
002
 62
     2
370
     9
100
AcDbLine
 10
86.272363
 20
143.999778
 30
0.0
 11
97.0
 21
143.99973
 31
0.0
  0
LINE
  5
14C
330
147
100
AcDbEntity
  8
002
 62
     2
370
     9
100
AcDbLine
 10
96.000119
 20
170.499735
 30
0.0
 11
96.0
 21
143.999735
 31
0.0
  0
POLYLINE
  5
14D
330
147
100
AcDbEntity
  8
002
 62
     2
370
     9
100
AcDb2dPolyline
 66
     1
 10
0.0
 20
0.0
 30
0.0
  0
VERTEX
  5
14F
330
14D
100
AcDbEntity
  8
002
 62
     2
370
     9
100
AcDbVertex
100
AcDb2dVertex
 10
95.598188
 20
168.999736
 30
0.0
  0
VERTEX
  5
150
330
14D
100
AcDbEntity
  8
002
 62
     2
370
     9
100
AcDbVertex
100
AcDb2dVertex
 10
96.000119
 20
170.499735
 30
0.0
  0
VERTEX
  5
151
330
14D
100
AcDbEntity
  8
002
 62
     2
370
     9
100
AcDbVertex
100
AcDb2dVertex
 10
96.402036
 20
168.999733
 30
0.0
  0
SEQEND
  5
14E
330
14D
100
AcDbEntity
  8
002
 62
     2
370
     9
  0
POLYLINE
  5
152
330
147
100
AcDbEntity
  8
002
 62
     2
370
     9
100
AcDb2dPolyline
 66
     1
 10
0.0
 20
0.0
 30
0.0
  0
VERTEX
  5
154
330
152
100
AcDbEntity
  8
002
 62
     2
370
     9
100
AcDbVertex
100
AcDb2dVertex
 10
96.401931
 20
145.499733
 30
0.0
  0
VERTEX
  5
155
330
152
100
AcDbEntity
  8
002
 62
     2
370
     9
100
AcDbVertex
100
AcDb2dVertex
 10
96.0
 20
143.999735
 30
0.0
  0
VERTEX
  5
156
330
152
100
AcDbEntity
  8
002
 62
     2
370
     9
100
AcDbVertex
100
AcDb2dVertex
 10
95.598083
 20
145.499736
 30
0.0
  0
SEQEND
  5
153
330
152
100
AcDbEntity
  8
002
 62
     2
370
     9
  0
MTEXT
  5
157
330
147
100
AcDbEntity
  8
002
 62
     3
370
     9
100
AcDbMText
 10
93.000119
 20
157.249734
 30
0.0
 40
4.0
 41
0.0
 71
     5
 72
     1
  1
\W0.833333;２６．５
 11
-4.371139000186241E-8
 21
0.999999999999999
 31
0.0
 73
     1
 44
1.0
  0
POINT
  5
158
330
147
100
AcDbEntity
  8
002
 62
     2
370
     9
100
AcDbPoint
 10
57.000069
 20
170.49991
 30
0.0
  0
POINT
  5
159
330
147
100
AcDbEntity
  8
002
 62
     2
370
     9
100
AcDbPoint
 10
86.272363
 20
143.999778
 30
0.0
  0
POINT
  5
15A
330
147
100
AcDbEntity
  8
002
 62
     2
370
     9
100
AcDbPoint
 10
96.0
 20
143.999735
 30
0.0
  0
ENDBLK
  5
149
330
147
100
AcDbEntity
  8
0
100
AcDbBlockEnd
  0
BLOCK
  5
15C
330
15B
100
AcDbEntity
  8
0
100
AcDbBlockBegin
  2
*D10
 70
     1
 10
0.0
 20
0.0
 30
0.0
  3
*D10
  1

  0
LINE
  5
15E
330
15B
100
AcDbEntity
  8
002
 62
     2
370
     9
100
AcDbLine
 10
73.33624
 20
163.999936
 30
0.0
 11
89.00009
 21
163.999866
 31
0.0
  0
LINE
  5
15F
330
15B
100
AcDbEntity
  8
002
 62
     2
370
     9
100
AcDbLine
 10
81.99995
 20
143.999897
 30
0.0
 11
89.0
 21
143.999866
 31
0.0
  0
LINE
  5
160
330
15B
100
AcDbEntity
  8
002
 62
     2
370
     9
100
AcDbLine
 10
88.00009
 20
163.99987
 30
0.0
 11
88.0
 21
143.99987
 31
0.0
  0
POLYLINE
  5
161
330
15B
100
AcDbEntity
  8
002
 62
     2
370
     9
100
AcDb2dPolyline
 66
     1
 10
0.0
 20
0.0
 30
0.0
  0
VERTEX
  5
163
330
161
100
AcDbEntity
  8
002
 62
     2
370
     9
100
AcDbVertex
100
AcDb2dVertex
 10
87.598159
 20
162.499872
 30
0.0
  0
VERTEX
  5
164
330
161
100
AcDbEntity
  8
002
 62
     2
370
     9
100
AcDbVertex
100
AcDb2dVertex
 10
88.00009
 20
163.99987
 30
0.0
  0
VERTEX
  5
165
330
161
100
AcDbEntity
  8
002
 62
     2
370
     9
100
AcDbVertex
100
AcDb2dVertex
 10
88.402007
 20
162.499869
 30
0.0
  0
SEQEND
  5
162
330
161
100
AcDbEntity
  8
002
 62
     2
370
     9
  0
POLYLINE
  5
166
330
15B
100
AcDbEntity
  8
002
 62
     2
370
     9
100
AcDb2dPolyline
 66
     1
 10
0.0
 20
0.0
 30
0.0
  0
VERTEX
  5
168
330
166
100
AcDbEntity
  8
002
 62
     2
370
     9
100
AcDbVertex
100
AcDb2dVertex
 10
88.401931
 20
145.499869
 30
0.0
  0
VERTEX
  5
169
330
166
100
AcDbEntity
  8
002
 62
     2
370
     9
100
AcDbVertex
100
AcDb2dVertex
 10
88.0
 20
143.99987
 30
0.0
  0
VERTEX
  5
16A
330
166
100
AcDbEntity
  8
002
 62
     2
370
     9
100
AcDbVertex
100
AcDb2dVertex
 10
87.598083
 20
145.499872
 30
0.0
  0
SEQEND
  5
167
330
166
100
AcDbEntity
  8
002
 62
     2
370
     9
  0
MTEXT
  5
16B
330
15B
100
AcDbEntity
  8
002
 62
     3
370
     9
100
AcDbMText
 10
85.00009
 20
153.99987
 30
0.0
 40
4.0
 41
0.0
 71
     5
 72
     1
  1
\W0.833333;２０
 11
-4.371139000186241E-8
 21
0.999999999999999
 31
0.0
 73
     1
 44
1.0
  0
POINT
  5
16C
330
15B
100
AcDbEntity
  8
002
 62
     2
370
     9
100
AcDbPoint
 10
73.33624
 20
163.999936
 30
0.0
  0
POINT
  5
16D
330
15B
100
AcDbEntity
  8
002
 62
     2
370
     9
100
AcDbPoint
 10
81.99995
 20
143.999897
 30
0.0
  0
POINT
  5
16E
330
15B
100
AcDbEntity
  8
002
 62
     2
370
     9
100
AcDbPoint
 10
88.0
 20
143.99987
 30
0.0
  0
ENDBLK
  5
15D
330
15B
100
AcDbEntity
  8
0
100
AcDbBlockEnd
  0
BLOCK
  5
170
330
16F
100
AcDbEntity
  8
0
100
AcDbBlockBegin
  2
*D11
 70
     1
 10
0.0
 20
0.0
 30
0.0
  3
*D11
  1

  0
LINE
  5
172
330
16F
100
AcDbEntity
  8
002
 62
     2
370
     9
100
AcDbLine
 10
87.666587
 20
143.999772
 30
0.0
 11
97.0
 21
143.99973
 31
0.0
  0
LINE
  5
173
330
16F
100
AcDbEntity
  8
002
 62
     2
370
     9
100
AcDbLine
 10
57.999781
 20
117.499905
 30
0.0
 11
96.999881
 21
117.49973
 31
0.0
  0
LINE
  5
174
330
16F
100
AcDbEntity
  8
002
 62
     2
370
     9
100
AcDbLine
 10
96.0
 20
143.999735
 30
0.0
 11
95.999881
 21
117.499735
 31
0.0
  0
POLYLINE
  5
175
330
16F
100
AcDbEntity
  8
002
 62
     2
370
     9
100
AcDb2dPolyline
 66
     1
 10
0.0
 20
0.0
 30
0.0
  0
VERTEX
  5
177
330
175
100
AcDbEntity
  8
002
 62
     2
370
     9
100
AcDbVertex
100
AcDb2dVertex
 10
95.598069
 20
142.499736
 30
0.0
  0
VERTEX
  5
178
330
175
100
AcDbEntity
  8
002
 62
     2
370
     9
100
AcDbVertex
100
AcDb2dVertex
 10
96.0
 20
143.999735
 30
0.0
  0
VERTEX
  5
179
330
175
100
AcDbEntity
  8
002
 62
     2
370
     9
100
AcDbVertex
100
AcDb2dVertex
 10
96.401917
 20
142.499733
 30
0.0
  0
SEQEND
  5
176
330
175
100
AcDbEntity
  8
002
 62
     2
370
     9
  0
POLYLINE
  5
17A
330
16F
100
AcDbEntity
  8
002
 62
     2
370
     9
100
AcDb2dPolyline
 66
     1
 10
0.0
 20
0.0
 30
0.0
  0
VERTEX
  5
17C
330
17A
100
AcDbEntity
  8
002
 62
     2
370
     9
100
AcDbVertex
100
AcDb2dVertex
 10
96.401812
 20
118.999733
 30
0.0
  0
VERTEX
  5
17D
330
17A
100
AcDbEntity
  8
002
 62
     2
370
     9
100
AcDbVertex
100
AcDb2dVertex
 10
95.999881
 20
117.499735
 30
0.0
  0
VERTEX
  5
17E
330
17A
100
AcDbEntity
  8
002
 62
     2
370
     9
100
AcDbVertex
100
AcDb2dVertex
 10
95.597964
 20
118.999736
 30
0.0
  0
SEQEND
  5
17B
330
17A
100
AcDbEntity
  8
002
 62
     2
370
     9
  0
MTEXT
  5
17F
330
16F
100
AcDbEntity
  8
002
 62
     3
370
     9
100
AcDbMText
 10
93.0
 20
130.749734
 30
0.0
 40
4.0
 41
0.0
 71
     5
 72
     1
  1
\W0.833333;２６．５
 11
-4.371139000186241E-8
 21
0.999999999999999
 31
0.0
 73
     1
 44
1.0
  0
POINT
  5
180
330
16F
100
AcDbEntity
  8
002
 62
     2
370
     9
100
AcDbPoint
 10
87.666587
 20
143.999772
 30
0.0
  0
POINT
  5
181
330
16F
100
AcDbEntity
  8
002
 62
     2
370
     9
100
AcDbPoint
 10
57.999781
 20
117.499905
 30
0.0
  0
POINT
  5
182
330
16F
100
AcDbEntity
  8
002
 62
     2
370
     9
100
AcDbPoint
 10
95.999881
 20
117.499735
 30
0.0
  0
ENDBLK
  5
171
330
16F
100
AcDbEntity
  8
0
100
AcDbBlockEnd
  0
BLOCK
  5
184
330
183
100
AcDbEntity
  8
0
100
AcDbBlockBegin
  2
*D12
 70
     1
 10
0.0
 20
0.0
 30
0.0
  3
*D12
  1

  0
LINE
  5
186
330
183
100
AcDbEntity
  8
002
 62
     2
370
     9
100
AcDbLine
 10
67.999964
 20
169.33616
 30
0.0
 11
68.000034
 21
184.99991
 31
0.0
  0
LINE
  5
187
330
183
100
AcDbEntity
  8
002
 62
     2
370
     9
100
AcDbLine
 10
48.000103
 20
178.00005
 30
0.0
 11
48.000134
 21
185.0
 31
0.0
  0
LINE
  5
188
330
183
100
AcDbEntity
  8
002
 62
     2
370
     9
100
AcDbLine
 10
68.00003
 20
183.99991
 30
0.0
 11
48.00013
 21
184.0
 31
0.0
  0
POLYLINE
  5
189
330
183
100
AcDbEntity
  8
002
 62
     2
370
     9
100
AcDb2dPolyline
 66
     1
 10
0.0
 20
0.0
 30
0.0
  0
VERTEX
  5
18B
330
189
100
AcDbEntity
  8
002
 62
     2
370
     9
100
AcDbVertex
100
AcDb2dVertex
 10
66.500031
 20
184.401841
 30
0.0
  0
VERTEX
  5
18C
330
189
100
AcDbEntity
  8
002
 62
     2
370
     9
100
AcDbVertex
100
AcDb2dVertex
 10
68.00003
 20
183.99991
 30
0.0
  0
VERTEX
  5
18D
330
189
100
AcDbEntity
  8
002
 62
     2
370
     9
100
AcDbVertex
100
AcDb2dVertex
 10
66.500028
 20
183.597993
 30
0.0
  0
SEQEND
  5
18A
330
189
100
AcDbEntity
  8
002
 62
     2
370
     9
  0
POLYLINE
  5
18E
330
183
100
AcDbEntity
  8
002
 62
     2
370
     9
100
AcDb2dPolyline
 66
     1
 10
0.0
 20
0.0
 30
0.0
  0
VERTEX
  5
190
330
18E
100
AcDbEntity
  8
002
 62
     2
370
     9
100
AcDbVertex
100
AcDb2dVertex
 10
49.500128
 20
183.598069
 30
0.0
  0
VERTEX
  5
191
330
18E
100
AcDbEntity
  8
002
 62
     2
370
     9
100
AcDbVertex
100
AcDb2dVertex
 10
48.00013
 20
184.0
 30
0.0
  0
VERTEX
  5
192
330
18E
100
AcDbEntity
  8
002
 62
     2
370
     9
100
AcDbVertex
100
AcDb2dVertex
 10
49.500131
 20
184.401917
 30
0.0
  0
SEQEND
  5
18F
330
18E
100
AcDbEntity
  8
002
 62
     2
370
     9
  0
MTEXT
  5
193
330
183
100
AcDbEntity
  8
002
 62
     3
370
     9
100
AcDbMText
 10
58.00008
 20
186.99991
 30
0.0
 40
4.0
 41
0.0
 71
     5
 72
     1
  1
\W0.833333;２０
 73
     1
 44
1.0
  0
POINT
  5
194
330
183
100
AcDbEntity
  8
002
 62
     2
370
     9
100
AcDbPoint
 10
67.999964
 20
169.33616
 30
0.0
  0
POINT
  5
195
330
183
100
AcDbEntity
  8
002
 62
     2
370
     9
100
AcDbPoint
 10
48.000103
 20
178.00005
 30
0.0
  0
POINT
  5
196
330
183
100
AcDbEntity
  8
002
 62
     2
370
     9
100
AcDbPoint
 10
48.00013
 20
184.0
 30
0.0
  0
ENDBLK
  5
185
330
183
100
AcDbEntity
  8
0
100
AcDbBlockEnd
  0
BLOCK
  5
198
330
197
100
AcDbEntity
  8
0
100
AcDbBlockBegin
  2
*D13
 70
     1
 10
0.0
 20
0.0
 30
0.0
  3
*D13
  1

  0
LINE
  5
19A
330
197
100
AcDbEntity
  8
002
 62
     2
370
     9
100
AcDbLine
 10
54.249874
 20
127.138022
 30
0.0
 11
54.249901
 21
132.999972
 31
0.0
  0
LINE
  5
19B
330
197
100
AcDbEntity
  8
002
 62
     2
370
     9
100
AcDbLine
 10
41.749884
 20
129.190678
 30
0.0
 11
41.749901
 21
133.000028
 31
0.0
  0
LINE
  5
19C
330
197
100
AcDbEntity
  8
002
 62
     2
370
     9
100
AcDbLine
 10
54.249896
 20
131.999972
 30
0.0
 11
41.749896
 21
132.000028
 31
0.0
  0
POLYLINE
  5
19D
330
197
100
AcDbEntity
  8
002
 62
     2
370
     9
100
AcDb2dPolyline
 66
     1
 10
0.0
 20
0.0
 30
0.0
  0
VERTEX
  5
19F
330
19D
100
AcDbEntity
  8
002
 62
     2
370
     9
100
AcDbVertex
100
AcDb2dVertex
 10
52.749898
 20
132.401902
 30
0.0
  0
VERTEX
  5
1A0
330
19D
100
AcDbEntity
  8
002
 62
     2
370
     9
100
AcDbVertex
100
AcDb2dVertex
 10
54.249896
 20
131.999972
 30
0.0
  0
VERTEX
  5
1A1
330
19D
100
AcDbEntity
  8
002
 62
     2
370
     9
100
AcDbVertex
100
AcDb2dVertex
 10
52.749894
 20
131.598055
 30
0.0
  0
SEQEND
  5
19E
330
19D
100
AcDbEntity
  8
002
 62
     2
370
     9
  0
POLYLINE
  5
1A2
330
197
100
AcDbEntity
  8
002
 62
     2
370
     9
100
AcDb2dPolyline
 66
     1
 10
0.0
 20
0.0
 30
0.0
  0
VERTEX
  5
1A4
330
1A2
100
AcDbEntity
  8
002
 62
     2
370
     9
100
AcDbVertex
100
AcDb2dVertex
 10
43.249894
 20
131.598098
 30
0.0
  0
VERTEX
  5
1A5
330
1A2
100
AcDbEntity
  8
002
 62
     2
370
     9
100
AcDbVertex
100
AcDb2dVertex
 10
41.749896
 20
132.000028
 30
0.0
  0
VERTEX
  5
1A6
330
1A2
100
AcDbEntity
  8
002
 62
     2
370
     9
100
AcDbVertex
100
AcDb2dVertex
 10
43.249898
 20
132.401945
 30
0.0
  0
SEQEND
  5
1A3
330
1A2
100
AcDbEntity
  8
002
 62
     2
370
     9
  0
MTEXT
  5
1A7
330
197
100
AcDbEntity
  8
002
 62
     3
370
     9
100
AcDbMText
 10
47.999896
 20
134.999972
 30
0.0
 40
4.0
 41
0.0
 71
     5
 72
     1
  1
\W0.889831;１２.５
 73
     1
 44
1.0
  0
POINT
  5
1A8
330
197
100
AcDbEntity
  8
002
 62
     2
370
     9
100
AcDbPoint
 10
54.249874
 20
127.138022
 30
0.0
  0
POINT
  5
1A9
330
197
100
AcDbEntity
  8
002
 62
     2
370
     9
100
AcDbPoint
 10
41.749884
 20
129.190678
 30
0.0
  0
POINT
  5
1AA
330
197
100
AcDbEntity
  8
002
 62
     2
370
     9
100
AcDbPoint
 10
41.749896
 20
132.000028
 30
0.0
  0
ENDBLK
  5
199
330
197
100
AcDbEntity
  8
0
100
AcDbBlockEnd
  0
BLOCK
  5
1AC
330
1AB
100
AcDbEntity
  8
0
100
AcDbBlockBegin
  2
JZB-6
 70
     0
 10
0.0
 20
0.0
 30
0.0
  3
JZB-6
  1

  0
CIRCLE
  5
1AE
330
1AB
100
AcDbEntity
  8
001
370
    30
100
AcDbCircle
 10
47.99995
 20
144.00005
 30
0.0
 40
17.0
  0
CIRCLE
  5
1AF
330
1AB
100
AcDbEntity
  8
001
370
    30
100
AcDbCircle
 10
47.99995
 20
144.00005
 30
0.0
 40
22.715
  0
CIRCLE
  5
1B0
330
1AB
100
AcDbEntity
  8
001
370
     9
100
AcDbCircle
 10
48.0
 20
144.0
 30
0.0
 40
31.5
  0
LINE
  5
1B1
330
1AB
100
AcDbEntity
  8
001
  6
HIDDEN
 62
     2
370
    30
100
AcDbLine
 10
19.577311
 20
157.579578
 30
0.0
 11
34.420578
 21
172.422811
 31
0.0
  0
LINE
  5
1B2
330
1AB
100
AcDbEntity
  8
001
  6
CENTER
 62
     2
370
    30
100
AcDbLine
 10
47.99995
 20
144.00005
 30
0.0
 11
24.524055
 21
167.476055
 31
0.0
  0
LINE
  5
1B3
330
1AB
100
AcDbEntity
  8
001
  6
HIDDEN
 62
     2
370
    30
100
AcDbLine
 10
48.000055
 20
167.30005
 30
0.0
 11
53.000065
 21
169.631528
 31
0.0
  0
LINE
  5
1B4
330
1AB
100
AcDbEntity
  8
001
  6
HIDDEN
 62
     2
370
    30
100
AcDbLine
 10
43.000065
 20
169.631572
 30
0.0
 11
43.000069
 21
170.500072
 31
0.0
  0
LINE
  5
1B5
330
1AB
100
AcDbEntity
  8
001
  6
HIDDEN
 62
     2
370
    30
100
AcDbLine
 10
53.000065
 20
169.631528
 30
0.0
 11
53.000069
 21
170.500028
 31
0.0
  0
LINE
  5
1B6
330
1AB
100
AcDbEntity
  8
001
  6
HIDDEN
 62
     2
370
    30
100
AcDbLine
 10
48.000055
 20
167.30005
 30
0.0
 11
43.000065
 21
169.631572
 31
0.0
  0
LINE
  5
1B7
330
1AB
100
AcDbEntity
  8
001
  6
HIDDEN
 62
     2
370
    30
100
AcDbLine
 10
43.000065
 20
169.631572
 30
0.0
 11
52.999965
 21
169.631528
 31
0.0
  0
LINE
  5
1B8
330
1AB
100
AcDbEntity
  8
001
370
    30
100
AcDbLine
 10
41.749879
 20
128.190678
 30
0.0
 11
41.74987
 21
126.138078
 31
0.0
  0
ARC
  5
1B9
330
1AB
100
AcDbEntity
  8
001
370
    30
100
AcDbCircle
 10
38.74997
 20
126.138092
 30
0.0
 40
3.0
100
AcDbArc
 50
274.613743
 51
359.999743
  0
LINE
  5
1BA
330
1AB
100
AcDbEntity
  8
001
370
    30
100
AcDbLine
 10
54.249921
 20
159.809422
 30
0.0
 11
54.24993
 21
161.862022
 31
0.0
  0
ARC
  5
1BB
330
1AB
100
AcDbEntity
  8
001
370
    30
100
AcDbCircle
 10
57.25003
 20
161.862008
 30
0.0
 40
3.0
100
AcDbArc
 50
94.613543
 51
179.999743
  0
ARC
  5
1BC
330
1AB
100
AcDbEntity
  8
001
370
    30
100
AcDbCircle
 10
57.24997
 20
126.138008
 30
0.0
 40
3.0
100
AcDbArc
 50
180.000743
 51
265.386743
  0
LINE
  5
1BD
330
1AB
100
AcDbEntity
  8
001
370
    30
100
AcDbLine
 10
54.249879
 20
128.190622
 30
0.0
 11
54.24987
 21
126.138022
 31
0.0
  0
ARC
  5
1BE
330
1AB
100
AcDbEntity
  8
001
370
    30
100
AcDbCircle
 10
38.75003
 20
161.862092
 30
0.0
 40
2.999999999999995
100
AcDbArc
 50
359.999743
 51
85.385943
  0
LINE
  5
1BF
330
1AB
100
AcDbEntity
  8
001
370
    30
100
AcDbLine
 10
41.749921
 20
159.809478
 30
0.0
 11
41.74993
 21
161.862078
 31
0.0
  0
LINE
  5
1C0
330
1AB
100
AcDbEntity
  8
001
  6
HIDDEN
 62
     2
370
    30
100
AcDbLine
 10
40.000069
 20
170.499986
 30
0.0
 11
56.000069
 21
170.499914
 31
0.0
  0
LINE
  5
1C1
330
1AB
100
AcDbEntity
  8
001
  6
HIDDEN
 62
     2
370
    30
100
AcDbLine
 10
38.999831
 20
117.49999
 30
0.0
 11
56.999831
 21
117.49991
 31
0.0
  0
LINE
  5
1C2
330
1AB
100
AcDbEntity
  8
001
  6
HIDDEN
 62
     2
370
    30
100
AcDbLine
 10
56.999831
 20
117.49991
 30
0.0
 11
56.999714
 21
113.81301
 31
0.0
  0
LINE
  5
1C3
330
1AB
100
AcDbEntity
  8
001
  6
HIDDEN
 62
     2
370
    30
100
AcDbLine
 10
38.999831
 20
117.49999
 30
0.0
 11
38.999714
 21
113.81309
 31
0.0
  0
LINE
  5
1C4
330
1AB
100
AcDbEntity
  8
001
  6
HIDDEN
 62
     2
370
    30
100
AcDbLine
 10
56.000087
 20
174.467114
 30
0.0
 11
56.000069
 21
170.499914
 31
0.0
  0
LINE
  5
1C5
330
1AB
100
AcDbEntity
  8
001
  6
HIDDEN
 62
     2
370
    30
100
AcDbLine
 10
40.000087
 20
174.467186
 30
0.0
 11
40.000069
 21
170.499986
 31
0.0
  0
LINE
  5
1C6
330
1AB
100
AcDbEntity
  8
001
  6
HIDDEN
 62
     2
370
    30
100
AcDbLine
 10
68.00004
 20
163.99996
 30
0.0
 11
72.33624
 21
163.999941
 31
0.0
  0
LINE
  5
1C7
330
1AB
100
AcDbEntity
  8
001
  6
HIDDEN
 62
     2
370
    30
100
AcDbLine
 10
67.999959
 20
168.33616
 30
0.0
 11
68.00004
 21
163.99996
 31
0.0
  0
ARC
  5
1C8
330
1AB
100
AcDbEntity
  8
001
 62
     2
370
    30
100
AcDbCircle
 10
37.74987
 20
126.137996
 30
0.0
 40
3.0
100
AcDbArc
 50
288.038743
 51
359.999743
  0
LINE
  5
1C9
330
1AB
100
AcDbEntity
  8
001
 62
     2
370
    30
100
AcDbLine
 10
40.749881
 20
128.623483
 30
0.0
 11
40.74987
 21
126.137983
 31
0.0
  0
ARC
  5
1CA
330
1AB
100
AcDbEntity
  8
001
 62
     2
370
    30
100
AcDbCircle
 10
58.24987
 20
126.137904
 30
0.0
 40
3.000000000000002
100
AcDbArc
 50
179.999743
 51
251.960743
  0
LINE
  5
1CB
330
1AB
100
AcDbEntity
  8
001
 62
     2
370
    30
100
AcDbLine
 10
55.249981
 20
128.623417
 30
0.0
 11
55.24997
 21
126.137917
 31
0.0
  0
ARC
  5
1CC
330
1AB
100
AcDbEntity
  8
001
 62
     2
370
    30
100
AcDbCircle
 10
37.75003
 20
161.862096
 30
0.0
 40
2.999999999999998
100
AcDbArc
 50
359.999743
 51
71.960943
  0
LINE
  5
1CD
330
1AB
100
AcDbEntity
  8
001
 62
     2
370
    30
100
AcDbLine
 10
40.749919
 20
159.376583
 30
0.0
 11
40.74993
 21
161.862083
 31
0.0
  0
ARC
  5
1CE
330
1AB
100
AcDbEntity
  8
001
 62
     2
370
    30
100
AcDbCircle
 10
58.25003
 20
161.862004
 30
0.0
 40
3.0
100
AcDbArc
 50
108.038743
 51
179.999743
  0
LINE
  5
1CF
330
1AB
100
AcDbEntity
  8
001
 62
     2
370
    30
100
AcDbLine
 10
55.250119
 20
159.376517
 30
0.0
 11
55.25013
 21
161.862017
 31
0.0
  0
LINE
  5
1D0
330
1AB
100
AcDbEntity
  8
001
  6
CENTER
 62
     2
370
    30
100
AcDbLine
 10
47.99995
 20
143.99995
 30
0.0
 11
24.311956
 21
167.688156
 31
0.0
  0
LINE
  5
1D1
330
1AB
100
AcDbEntity
  8
001
  6
CENTER
 62
     2
370
     9
100
AcDbLine
 10
15.5
 20
144.000146
 30
0.0
 11
80.5
 21
143.999854
 31
0.0
  0
TEXT
  5
1D2
330
1AB
100
AcDbEntity
  8
002
 62
     3
370
     9
100
AcDbText
 10
82.298094
 20
131.548896
 30
0.0
 40
4.0
  1
　
 41
0.833333
100
AcDbText
  0
TEXT
  5
1D3
330
1AB
100
AcDbEntity
  8
002
 62
     3
370
     9
100
AcDbText
 10
82.298092
 20
131.117296
 30
0.0
 40
4.0
  1
　
 41
0.833333
100
AcDbText
  0
TEXT
  5
1D4
330
1AB
100
AcDbEntity
  8
002
 62
     3
370
     9
100
AcDbText
 10
82.650592
 20
131.117294
 30
0.0
 40
4.0
  1
　
 41
0.833333
100
AcDbText
  0
DIMENSION
  5
1D5
330
1AB
100
AcDbEntity
  8
002
 62
     2
370
     9
100
AcDbDimension
  2
*D9
 10
96.0
 20
143.999735
 30
0.0
 11
93.000119
 21
157.249734
 31
0.0
 70
   160
  1
\W0.833333;２６．５
 71
     5
 42
-1.0
  3
Standard
100
AcDbAlignedDimension
 13
57.000069
 23
170.49991
 33
0.0
 14
86.272363
 24
143.999778
 34
0.0
 50
270.0
100
AcDbRotatedDimension
  0
DIMENSION
  5
1D6
330
1AB
100
AcDbEntity
  8
002
 62
     2
370
     9
100
AcDbDimension
  2
*D10
 10
88.0
 20
143.99987
 30
0.0
 11
85.00009
 21
153.99987
 31
0.0
 70
   160
  1
\W0.833333;２０
 71
     5
 42
-1.0
  3
Standard
100
AcDbAlignedDimension
 13
73.33624
 23
163.999936
 33
0.0
 14
81.99995
 24
143.999897
 34
0.0
 50
270.0
100
AcDbRotatedDimension
  0
DIMENSION
  5
1D7
330
1AB
100
AcDbEntity
  8
002
 62
     2
370
     9
100
AcDbDimension
  2
*D11
 10
95.999881
 20
117.499735
 30
0.0
 11
93.0
 21
130.749734
 31
0.0
 70
   160
  1
\W0.833333;２６．５
 71
     5
 42
-1.0
  3
Standard
100
AcDbAlignedDimension
 13
87.666587
 23
143.999772
 33
0.0
 14
57.999781
 24
117.499905
 34
0.0
 50
270.0
100
AcDbRotatedDimension
  0
DIMENSION
  5
1D8
330
1AB
100
AcDbEntity
  8
002
 62
     2
370
     9
100
AcDbDimension
  2
*D12
 10
48.00013
 20
184.0
 30
0.0
 11
58.00008
 21
186.99991
 31
0.0
 70
   160
  1
\W0.833333;２０
 71
     5
 42
-1.0
  3
Standard
100
AcDbAlignedDimension
 13
67.999964
 23
169.33616
 33
0.0
 14
48.000103
 24
178.00005
 34
0.0
 50
179.999743
100
AcDbRotatedDimension
  0
DIMENSION
  5
1D9
330
1AB
100
AcDbEntity
  8
002
 62
     2
370
     9
100
AcDbDimension
  2
*D13
 10
41.749896
 20
132.000028
 30
0.0
 11
47.999896
 21
134.999972
 31
0.0
 70
   160
  1
\W0.889831;１２.５
 71
     5
 42
-1.0
  3
Standard
100
AcDbAlignedDimension
 13
54.249874
 23
127.138022
 33
0.0
 14
41.749884
 24
129.190678
 34
0.0
 50
179.999743
100
AcDbRotatedDimension
  0
LINE
  5
1DA
330
1AB
100
AcDbEntity
  8
001
  6
CENTER
 62
     2
370
     9
100
AcDbLine
 10
47.999854
 20
111.5
 30
0.0
 11
47.999942
 21
130.999996
 31
0.0
  0
LINE
  5
1DB
330
1AB
100
AcDbEntity
  8
001
  6
CENTER
 62
     2
370
     9
100
AcDbLine
 10
47.999973
 20
137.999996
 30
0.0
 11
48.000146
 21
176.5
 31
0.0
  0
CIRCLE
  5
1DC
330
1AB
100
AcDbEntity
  8
001
 62
     2
370
    30
100
AcDbCircle
 10
48.0
 20
144.0
 30
0.0
 40
8.599999999999994
  0
CIRCLE
  5
1DD
330
1AB
100
AcDbEntity
  8
001
 62
    21
370
    30
100
AcDbCircle
 10
48.0
 20
144.0
 30
0.0
 40
9.0
  0
CIRCLE
  5
1DE
330
1AB
100
AcDbEntity
  8
001
370
    30
100
AcDbCircle
 10
48.0
 20
144.0
 30
0.0
 40
4.199999999999989
  0
ENDBLK
  5
1AD
330
1AB
100
AcDbEntity
  8
0
100
AcDbBlockEnd
  0
BLOCK
  5
1E0
330
1DF
100
AcDbEntity
  8
0
100
AcDbBlockBegin
  2
*D15
 70
     1
 10
0.0
 20
0.0
 30
0.0
  3
*D15
  1

  0
LINE
  5
1E2
330
1DF
100
AcDbEntity
  8
002
 62
     2
370
     9
100
AcDbLine
 10
141.999
 20
242.25
 30
0.0
 11
141.999
 21
223.0
 31
0.0
  0
LINE
  5
1E3
330
1DF
100
AcDbEntity
  8
002
 62
     2
370
     9
100
AcDbLine
 10
135.999
 20
234.0
 30
0.0
 11
135.999
 21
223.0
 31
0.0
  0
LINE
  5
1E4
330
1DF
100
AcDbEntity
  8
002
 62
     2
370
     9
100
AcDbLine
 10
141.999
 20
224.0
 30
0.0
 11
135.999
 21
224.0
 31
0.0
  0
POLYLINE
  5
1E5
330
1DF
100
AcDbEntity
  8
002
 62
     2
370
     9
100
AcDb2dPolyline
 66
     1
 10
0.0
 20
0.0
 30
0.0
  0
VERTEX
  5
1E7
330
1E5
100
AcDbEntity
  8
002
 62
     2
370
     9
100
AcDbVertex
100
AcDb2dVertex
 10
140.499
 20
224.401924
 30
0.0
  0
VERTEX
  5
1E8
330
1E5
100
AcDbEntity
  8
002
 62
     2
370
     9
100
AcDbVertex
100
AcDb2dVertex
 10
141.999
 20
224.0
 30
0.0
  0
VERTEX
  5
1E9
330
1E5
100
AcDbEntity
  8
002
 62
     2
370
     9
100
AcDbVertex
100
AcDb2dVertex
 10
140.499
 20
223.598076
 30
0.0
  0
SEQEND
  5
1E6
330
1E5
100
AcDbEntity
  8
002
 62
     2
370
     9
  0
POLYLINE
  5
1EA
330
1DF
100
AcDbEntity
  8
002
 62
     2
370
     9
100
AcDb2dPolyline
 66
     1
 10
0.0
 20
0.0
 30
0.0
  0
VERTEX
  5
1EC
330
1EA
100
AcDbEntity
  8
002
 62
     2
370
     9
100
AcDbVertex
100
AcDb2dVertex
 10
137.499
 20
223.598076
 30
0.0
  0
VERTEX
  5
1ED
330
1EA
100
AcDbEntity
  8
002
 62
     2
370
     9
100
AcDbVertex
100
AcDb2dVertex
 10
135.999
 20
224.0
 30
0.0
  0
VERTEX
  5
1EE
330
1EA
100
AcDbEntity
  8
002
 62
     2
370
     9
100
AcDbVertex
100
AcDb2dVertex
 10
137.499
 20
224.401924
 30
0.0
  0
SEQEND
  5
1EB
330
1EA
100
AcDbEntity
  8
002
 62
     2
370
     9
  0
MTEXT
  5
1EF
330
1DF
100
AcDbEntity
  8
002
 62
     3
370
     9
100
AcDbMText
 10
138.999
 20
227.0
 30
0.0
 40
4.0
 41
0.0
 71
     5
 72
     1
  1
\W0.833333;６
 73
     1
 44
1.0
  0
POINT
  5
1F0
330
1DF
100
AcDbEntity
  8
002
 62
     2
370
     9
100
AcDbPoint
 10
141.999
 20
242.25
 30
0.0
  0
POINT
  5
1F1
330
1DF
100
AcDbEntity
  8
002
 62
     2
370
     9
100
AcDbPoint
 10
135.999
 20
234.0
 30
0.0
  0
POINT
  5
1F2
330
1DF
100
AcDbEntity
  8
002
 62
     2
370
     9
100
AcDbPoint
 10
135.999
 20
224.0
 30
0.0
  0
ENDBLK
  5
1E1
330
1DF
100
AcDbEntity
  8
0
100
AcDbBlockEnd
  0
BLOCK
  5
1F4
330
1F3
100
AcDbEntity
  8
0
100
AcDbBlockBegin
  2
*D16
 70
     1
 10
0.0
 20
0.0
 30
0.0
  3
*D16
  1

  0
LINE
  5
1F6
330
1F3
100
AcDbEntity
  8
002
 62
     2
370
     9
100
AcDbLine
 10
135.999
 20
241.75
 30
0.0
 11
127.0
 21
241.75
 31
0.0
  0
LINE
  5
1F7
330
1F3
100
AcDbEntity
  8
002
 62
     2
370
     9
100
AcDbLine
 10
135.999
 20
254.25
 30
0.0
 11
127.0
 21
254.25
 31
0.0
  0
LINE
  5
1F8
330
1F3
100
AcDbEntity
  8
002
 62
     2
370
     9
100
AcDbLine
 10
128.0
 20
241.75
 30
0.0
 11
128.0
 21
254.25
 31
0.0
  0
POLYLINE
  5
1F9
330
1F3
100
AcDbEntity
  8
002
 62
     2
370
     9
100
AcDb2dPolyline
 66
     1
 10
0.0
 20
0.0
 30
0.0
  0
VERTEX
  5
1FB
330
1F9
100
AcDbEntity
  8
002
 62
     2
370
     9
100
AcDbVertex
100
AcDb2dVertex
 10
128.401924
 20
243.25
 30
0.0
  0
VERTEX
  5
1FC
330
1F9
100
AcDbEntity
  8
002
 62
     2
370
     9
100
AcDbVertex
100
AcDb2dVertex
 10
128.0
 20
241.75
 30
0.0
  0
VERTEX
  5
1FD
330
1F9
100
AcDbEntity
  8
002
 62
     2
370
     9
100
AcDbVertex
100
AcDb2dVertex
 10
127.598076
 20
243.25
 30
0.0
  0
SEQEND
  5
1FA
330
1F9
100
AcDbEntity
  8
002
 62
     2
370
     9
  0
POLYLINE
  5
1FE
330
1F3
100
AcDbEntity
  8
002
 62
     2
370
     9
100
AcDb2dPolyline
 66
     1
 10
0.0
 20
0.0
 30
0.0
  0
VERTEX
  5
200
330
1FE
100
AcDbEntity
  8
002
 62
     2
370
     9
100
AcDbVertex
100
AcDb2dVertex
 10
127.598076
 20
252.75
 30
0.0
  0
VERTEX
  5
201
330
1FE
100
AcDbEntity
  8
002
 62
     2
370
     9
100
AcDbVertex
100
AcDb2dVertex
 10
128.0
 20
254.25
 30
0.0
  0
VERTEX
  5
202
330
1FE
100
AcDbEntity
  8
002
 62
     2
370
     9
100
AcDbVertex
100
AcDb2dVertex
 10
128.401924
 20
252.75
 30
0.0
  0
SEQEND
  5
1FF
330
1FE
100
AcDbEntity
  8
002
 62
     2
370
     9
  0
MTEXT
  5
203
330
1F3
100
AcDbEntity
  8
002
 62
     3
370
     9
100
AcDbMText
 10
125.0
 20
248.0
 30
0.0
 40
4.0
 41
0.0
 71
     5
 72
     1
  1
\W0.889831;１２.５
 11
-4.371139000186241E-8
 21
0.999999999999999
 31
0.0
 73
     1
 44
1.0
  0
POINT
  5
204
330
1F3
100
AcDbEntity
  8
002
 62
     2
370
     9
100
AcDbPoint
 10
135.999
 20
241.75
 30
0.0
  0
POINT
  5
205
330
1F3
100
AcDbEntity
  8
002
 62
     2
370
     9
100
AcDbPoint
 10
135.999
 20
254.25
 30
0.0
  0
POINT
  5
206
330
1F3
100
AcDbEntity
  8
002
 62
     2
370
     9
100
AcDbPoint
 10
128.0
 20
254.25
 30
0.0
  0
ENDBLK
  5
1F5
330
1F3
100
AcDbEntity
  8
0
100
AcDbBlockEnd
  0
BLOCK
  5
208
330
207
100
AcDbEntity
  8
0
100
AcDbBlockBegin
  2
*D17
 70
     1
 10
0.0
 20
0.0
 30
0.0
  3
*D17
  1

  0
LINE
  5
20A
330
207
100
AcDbEntity
  8
002
 62
     2
370
     9
100
AcDbLine
 10
195.0
 20
240.0
 30
0.0
 11
209.0
 21
240.0
 31
0.0
  0
LINE
  5
20B
330
207
100
AcDbEntity
  8
002
 62
     2
370
     9
100
AcDbLine
 10
195.0
 20
256.0
 30
0.0
 11
209.0
 21
256.0
 31
0.0
  0
LINE
  5
20C
330
207
100
AcDbEntity
  8
002
 62
     2
370
     9
100
AcDbLine
 10
208.0
 20
240.0
 30
0.0
 11
208.0
 21
256.0
 31
0.0
  0
POLYLINE
  5
20D
330
207
100
AcDbEntity
  8
002
 62
     2
370
     9
100
AcDb2dPolyline
 66
     1
 10
0.0
 20
0.0
 30
0.0
  0
VERTEX
  5
20F
330
20D
100
AcDbEntity
  8
002
 62
     2
370
     9
100
AcDbVertex
100
AcDb2dVertex
 10
208.401924
 20
241.5
 30
0.0
  0
VERTEX
  5
210
330
20D
100
AcDbEntity
  8
002
 62
     2
370
     9
100
AcDbVertex
100
AcDb2dVertex
 10
208.0
 20
240.0
 30
0.0
  0
VERTEX
  5
211
330
20D
100
AcDbEntity
  8
002
 62
     2
370
     9
100
AcDbVertex
100
AcDb2dVertex
 10
207.598076
 20
241.5
 30
0.0
  0
SEQEND
  5
20E
330
20D
100
AcDbEntity
  8
002
 62
     2
370
     9
  0
POLYLINE
  5
212
330
207
100
AcDbEntity
  8
002
 62
     2
370
     9
100
AcDb2dPolyline
 66
     1
 10
0.0
 20
0.0
 30
0.0
  0
VERTEX
  5
214
330
212
100
AcDbEntity
  8
002
 62
     2
370
     9
100
AcDbVertex
100
AcDb2dVertex
 10
207.598076
 20
254.5
 30
0.0
  0
VERTEX
  5
215
330
212
100
AcDbEntity
  8
002
 62
     2
370
     9
100
AcDbVertex
100
AcDb2dVertex
 10
208.0
 20
256.0
 30
0.0
  0
VERTEX
  5
216
330
212
100
AcDbEntity
  8
002
 62
     2
370
     9
100
AcDbVertex
100
AcDb2dVertex
 10
208.401924
 20
254.5
 30
0.0
  0
SEQEND
  5
213
330
212
100
AcDbEntity
  8
002
 62
     2
370
     9
  0
MTEXT
  5
217
330
207
100
AcDbEntity
  8
002
 62
     3
370
     9
100
AcDbMText
 10
205.0
 20
248.0
 30
0.0
 40
4.0
 41
0.0
 71
     5
 72
     1
  1
\W0.833333;１６
 11
-4.371139000186241E-8
 21
0.999999999999999
 31
0.0
 73
     1
 44
1.0
  0
POINT
  5
218
330
207
100
AcDbEntity
  8
002
 62
     2
370
     9
100
AcDbPoint
 10
195.0
 20
240.0
 30
0.0
  0
POINT
  5
219
330
207
100
AcDbEntity
  8
002
 62
     2
370
     9
100
AcDbPoint
 10
195.0
 20
256.0
 30
0.0
  0
POINT
  5
21A
330
207
100
AcDbEntity
  8
002
 62
     2
370
     9
100
AcDbPoint
 10
208.0
 20
256.0
 30
0.0
  0
ENDBLK
  5
209
330
207
100
AcDbEntity
  8
0
100
AcDbBlockEnd
  0
BLOCK
  5
21C
330
21B
100
AcDbEntity
  8
0
100
AcDbBlockBegin
  2
*D18
 70
     1
 10
0.0
 20
0.0
 30
0.0
  3
*D18
  1

  0
LINE
  5
21E
330
21B
100
AcDbEntity
  8
002
 62
     2
370
     9
100
AcDbLine
 10
173.0
 20
247.0
 30
0.0
 11
173.0
 21
231.0
 31
0.0
  0
LINE
  5
21F
330
21B
100
AcDbEntity
  8
002
 62
     2
370
     9
100
AcDbLine
 10
173.0
 20
232.0
 30
0.0
 11
194.0
 21
232.0
 31
0.0
  0
POLYLINE
  5
220
330
21B
100
AcDbEntity
  8
002
 62
     2
370
     9
100
AcDb2dPolyline
 66
     1
 10
0.0
 20
0.0
 30
0.0
  0
VERTEX
  5
222
330
220
100
AcDbEntity
  8
002
 62
     2
370
     9
100
AcDbVertex
100
AcDb2dVertex
 10
174.5
 20
231.598076
 30
0.0
  0
VERTEX
  5
223
330
220
100
AcDbEntity
  8
002
 62
     2
370
     9
100
AcDbVertex
100
AcDb2dVertex
 10
173.0
 20
232.0
 30
0.0
  0
VERTEX
  5
224
330
220
100
AcDbEntity
  8
002
 62
     2
370
     9
100
AcDbVertex
100
AcDb2dVertex
 10
174.5
 20
232.401924
 30
0.0
  0
SEQEND
  5
221
330
220
100
AcDbEntity
  8
002
 62
     2
370
     9
  0
POLYLINE
  5
225
330
21B
100
AcDbEntity
  8
002
 62
     2
370
     9
100
AcDb2dPolyline
 66
     1
 10
0.0
 20
0.0
 30
0.0
  0
VERTEX
  5
227
330
225
100
AcDbEntity
  8
002
 62
     2
370
     9
100
AcDbVertex
100
AcDb2dVertex
 10
192.5
 20
232.401924
 30
0.0
  0
VERTEX
  5
228
330
225
100
AcDbEntity
  8
002
 62
     2
370
     9
100
AcDbVertex
100
AcDb2dVertex
 10
194.0
 20
232.0
 30
0.0
  0
VERTEX
  5
229
330
225
100
AcDbEntity
  8
002
 62
     2
370
     9
100
AcDbVertex
100
AcDb2dVertex
 10
192.5
 20
231.598076
 30
0.0
  0
SEQEND
  5
226
330
225
100
AcDbEntity
  8
002
 62
     2
370
     9
  0
MTEXT
  5
22A
330
21B
100
AcDbEntity
  8
002
 62
     3
370
     9
100
AcDbMText
 10
178.0
 20
235.0
 30
0.0
 40
4.0
 41
0.0
 71
     5
 72
     1
  1
\W0.833333;２１
 73
     1
 44
1.0
  0
POINT
  5
22B
330
21B
100
AcDbEntity
  8
002
 62
     2
370
     9
100
AcDbPoint
 10
173.0
 20
247.0
 30
0.0
  0
POINT
  5
22C
330
21B
100
AcDbEntity
  8
002
 62
     2
370
     9
100
AcDbPoint
 10
194.0
 20
233.0
 30
0.0
  0
POINT
  5
22D
330
21B
100
AcDbEntity
  8
002
 62
     2
370
     9
100
AcDbPoint
 10
194.0
 20
232.0
 30
0.0
  0
ENDBLK
  5
21D
330
21B
100
AcDbEntity
  8
0
100
AcDbBlockEnd
  0
BLOCK
  5
22F
330
22E
100
AcDbEntity
  8
0
100
AcDbBlockBegin
  2
*D19
 70
     1
 10
0.0
 20
0.0
 30
0.0
  3
*D19
  1

  0
LINE
  5
231
330
22E
100
AcDbEntity
  8
002
 62
     2
370
     9
100
AcDbLine
 10
159.0
 20
254.25
 30
0.0
 11
159.0
 21
267.59802
 31
0.0
  0
LINE
  5
232
330
22E
100
AcDbEntity
  8
002
 62
     2
370
     9
100
AcDbLine
 10
168.0
 20
261.0
 30
0.0
 11
168.0
 21
267.59802
 31
0.0
  0
LINE
  5
233
330
22E
100
AcDbEntity
  8
002
 62
     2
370
     9
100
AcDbLine
 10
159.0
 20
266.59802
 30
0.0
 11
168.0
 21
266.59802
 31
0.0
  0
POLYLINE
  5
234
330
22E
100
AcDbEntity
  8
002
 62
     2
370
     9
100
AcDb2dPolyline
 66
     1
 10
0.0
 20
0.0
 30
0.0
  0
VERTEX
  5
236
330
234
100
AcDbEntity
  8
002
 62
     2
370
     9
100
AcDbVertex
100
AcDb2dVertex
 10
160.5
 20
266.196096
 30
0.0
  0
VERTEX
  5
237
330
234
100
AcDbEntity
  8
002
 62
     2
370
     9
100
AcDbVertex
100
AcDb2dVertex
 10
159.0
 20
266.59802
 30
0.0
  0
VERTEX
  5
238
330
234
100
AcDbEntity
  8
002
 62
     2
370
     9
100
AcDbVertex
100
AcDb2dVertex
 10
160.5
 20
266.999944
 30
0.0
  0
SEQEND
  5
235
330
234
100
AcDbEntity
  8
002
 62
     2
370
     9
  0
POLYLINE
  5
239
330
22E
100
AcDbEntity
  8
002
 62
     2
370
     9
100
AcDb2dPolyline
 66
     1
 10
0.0
 20
0.0
 30
0.0
  0
VERTEX
  5
23B
330
239
100
AcDbEntity
  8
002
 62
     2
370
     9
100
AcDbVertex
100
AcDb2dVertex
 10
166.5
 20
266.999944
 30
0.0
  0
VERTEX
  5
23C
330
239
100
AcDbEntity
  8
002
 62
     2
370
     9
100
AcDbVertex
100
AcDb2dVertex
 10
168.0
 20
266.59802
 30
0.0
  0
VERTEX
  5
23D
330
239
100
AcDbEntity
  8
002
 62
     2
370
     9
100
AcDbVertex
100
AcDb2dVertex
 10
166.5
 20
266.196096
 30
0.0
  0
SEQEND
  5
23A
330
239
100
AcDbEntity
  8
002
 62
     2
370
     9
  0
MTEXT
  5
23E
330
22E
100
AcDbEntity
  8
002
 62
     3
370
     9
100
AcDbMText
 10
163.5
 20
269.59802
 30
0.0
 40
4.0
 41
0.0
 71
     5
 72
     1
  1
\A1;\W0.833333;９{\H3.200000;\W0.937500;%%p０.１}
 73
     1
 44
1.0
  0
POINT
  5
23F
330
22E
100
AcDbEntity
  8
002
 62
     2
370
     9
100
AcDbPoint
 10
159.0
 20
254.25
 30
0.0
  0
POINT
  5
240
330
22E
100
AcDbEntity
  8
002
 62
     2
370
     9
100
AcDbPoint
 10
168.0
 20
261.0
 30
0.0
  0
POINT
  5
241
330
22E
100
AcDbEntity
  8
002
 62
     2
370
     9
100
AcDbPoint
 10
168.0
 20
266.59802
 30
0.0
  0
ENDBLK
  5
230
330
22E
100
AcDbEntity
  8
0
100
AcDbBlockEnd
  0
BLOCK
  5
243
330
242
100
AcDbEntity
  8
0
100
AcDbBlockBegin
  2
HSK63A-7
 70
     0
 10
0.0
 20
0.0
 30
0.0
  3
HSK63A-7
  1

  0
CIRCLE
  5
245
330
242
100
AcDbEntity
  8
001
370
     9
100
AcDbCircle
 10
159.0
 20
248.0
 30
0.0
 40
3.75
  0
CIRCLE
  5
246
330
242
100
AcDbEntity
  8
001
 62
     2
370
     9
100
AcDbCircle
 10
159.0
 20
248.0
 30
0.0
 40
4.25
  0
LINE
  5
247
330
242
100
AcDbEntity
  8
001
  6
CENTER
 62
     2
370
     9
100
AcDbLine
 10
159.0
 20
242.75
 30
0.0
 11
159.0
 21
253.25
 31
0.0
  0
LINE
  5
248
330
242
100
AcDbEntity
  8
001
370
    30
100
AcDbLine
 10
194.0
 20
256.0
 30
0.0
 11
181.0
 21
256.0
 31
0.0
  0
LINE
  5
249
330
242
100
AcDbEntity
  8
001
370
    30
100
AcDbLine
 10
194.0
 20
240.0
 30
0.0
 11
181.001
 21
240.0
 31
0.0
  0
LINE
  5
24A
330
242
100
AcDbEntity
  8
001
370
    30
100
AcDbLine
 10
187.875
 20
240.0
 30
0.0
 11
187.875
 21
220.0
 31
0.0
  0
LINE
  5
24B
330
242
100
AcDbEntity
  8
001
370
    30
100
AcDbLine
 10
184.125
 20
240.0
 30
0.0
 11
184.125
 21
220.0
 31
0.0
  0
LINE
  5
24C
330
242
100
AcDbEntity
  8
001
370
    30
100
AcDbLine
 10
184.125
 20
256.0
 30
0.0
 11
184.125
 21
260.0
 31
0.0
  0
LINE
  5
24D
330
242
100
AcDbEntity
  8
001
370
    30
100
AcDbLine
 10
187.875
 20
256.0
 30
0.0
 11
187.875
 21
260.0
 31
0.0
  0
LINE
  5
24E
330
242
100
AcDbEntity
  8
001
370
    50
100
AcDbLine
 10
187.875
 20
227.141692
 30
0.0
 11
189.37744
 21
223.663987
 31
0.0
  0
LINE
  5
24F
330
242
100
AcDbEntity
  8
001
370
    50
100
AcDbLine
 10
184.125
 20
227.141692
 30
0.0
 11
182.622559
 21
223.663985
 31
0.0
  0
LINE
  5
250
330
242
100
AcDbEntity
  8
001
370
    30
100
AcDbLine
 10
182.623
 20
223.664
 30
0.0
 11
173.0
 21
223.664
 31
0.0
  0
LINE
  5
251
330
242
100
AcDbEntity
  8
001
370
    30
100
AcDbLine
 10
184.125
 20
228.0
 30
0.0
 11
180.112
 21
228.0
 31
0.0
  0
POLYLINE
  5
252
330
242
100
AcDbEntity
  8
001
370
    50
100
AcDb2dPolyline
 66
     1
 10
0.0
 20
0.0
 30
0.0
  0
VERTEX
  5
254
330
252
100
AcDbEntity
  8
001
370
    50
100
AcDbVertex
100
AcDb2dVertex
 10
193.015002
 20
223.664
 30
0.0
  0
VERTEX
  5
255
330
252
100
AcDbEntity
  8
001
370
    50
100
AcDbVertex
100
AcDb2dVertex
 10
193.034969
 20
223.664762
 30
0.0
  0
VERTEX
  5
256
330
252
100
AcDbEntity
  8
001
370
    50
100
AcDbVertex
100
AcDb2dVertex
 10
193.054924
 20
223.665808
 30
0.0
  0
VERTEX
  5
257
330
252
100
AcDbEntity
  8
001
370
    50
100
AcDbVertex
100
AcDb2dVertex
 10
193.185228
 20
223.686066
 30
0.0
  0
VERTEX
  5
258
330
252
100
AcDbEntity
  8
001
370
    50
100
AcDbVertex
100
AcDb2dVertex
 10
193.310761
 20
223.727975
 30
0.0
  0
VERTEX
  5
259
330
252
100
AcDbEntity
  8
001
370
    50
100
AcDbVertex
100
AcDb2dVertex
 10
193.430327
 20
223.790007
 30
0.0
  0
VERTEX
  5
25A
330
252
100
AcDbEntity
  8
001
370
    50
100
AcDbVertex
100
AcDb2dVertex
 10
193.53945
 20
223.868691
 30
0.0
  0
VERTEX
  5
25B
330
252
100
AcDbEntity
  8
001
370
    50
100
AcDbVertex
100
AcDb2dVertex
 10
193.67253
 20
224.001564
 30
0.0
  0
VERTEX
  5
25C
330
252
100
AcDbEntity
  8
001
370
    50
100
AcDbVertex
100
AcDb2dVertex
 10
193.78283
 20
224.154842
 30
0.0
  0
VERTEX
  5
25D
330
252
100
AcDbEntity
  8
001
370
    50
100
AcDbVertex
100
AcDb2dVertex
 10
193.89154
 20
224.372503
 30
0.0
  0
VERTEX
  5
25E
330
252
100
AcDbEntity
  8
001
370
    50
100
AcDbVertex
100
AcDb2dVertex
 10
193.960352
 20
224.604872
 30
0.0
  0
VERTEX
  5
25F
330
252
100
AcDbEntity
  8
001
370
    50
100
AcDbVertex
100
AcDb2dVertex
 10
193.986466
 20
224.787894
 30
0.0
  0
VERTEX
  5
260
330
252
100
AcDbEntity
  8
001
370
    50
100
AcDbVertex
100
AcDb2dVertex
 10
194.0
 20
224.972886
 30
0.0
  0
SEQEND
  5
253
330
252
100
AcDbEntity
  8
001
370
    50
  0
LINE
  5
261
330
242
100
AcDbEntity
  8
001
370
    30
100
AcDbLine
 10
193.01501
 20
223.664
 30
0.0
 11
189.378
 21
223.664
 31
0.0
  0
CIRCLE
  5
262
330
242
100
AcDbEntity
  8
001
370
    30
100
AcDbCircle
 10
181.0
 20
248.0
 30
0.0
 40
5.0
  0
LINE
  5
263
330
242
100
AcDbEntity
  8
001
370
    30
100
AcDbLine
 10
141.999
 20
252.75
 30
0.0
 11
141.999
 21
243.25
 31
0.0
  0
LINE
  5
264
330
242
100
AcDbEntity
  8
001
370
    30
100
AcDbLine
 10
136.999
 20
254.25
 30
0.0
 11
140.499
 21
254.25
 31
0.0
  0
LINE
  5
265
330
242
100
AcDbEntity
  8
001
  6
CENTER
 62
     2
370
    30
100
AcDbLine
 10
195.0
 20
248.0
 30
0.0
 11
134.999
 21
248.0
 31
0.0
  0
LINE
  5
266
330
242
100
AcDbEntity
  8
001
370
    30
100
AcDbLine
 10
136.999
 20
241.75
 30
0.0
 11
140.499
 21
241.75
 31
0.0
  0
ARC
  5
267
330
242
100
AcDbEntity
  8
001
370
    30
100
AcDbCircle
 10
140.499
 20
252.75
 30
0.0
 40
1.5
100
AcDbArc
 50
0.0
 51
90.0
  0
ARC
  5
268
330
242
100
AcDbEntity
  8
001
370
    30
100
AcDbCircle
 10
140.499
 20
243.25
 30
0.0
 40
1.5
100
AcDbArc
 50
270.0
 51
0.0
  0
LINE
  5
269
330
242
100
AcDbEntity
  8
001
370
    30
100
AcDbLine
 10
135.999
 20
255.25
 30
0.0
 11
136.999
 21
254.25
 31
0.0
  0
LINE
  5
26A
330
242
100
AcDbEntity
  8
001
370
    30
100
AcDbLine
 10
136.999
 20
241.75
 30
0.0
 11
135.999
 21
240.75
 31
0.0
  0
LINE
  5
26B
330
242
100
AcDbEntity
  8
001
370
    30
100
AcDbLine
 10
182.623
 20
240.0
 30
0.0
 11
182.623
 21
228.0
 31
0.0
  0
LINE
  5
26C
330
242
100
AcDbEntity
  8
001
370
    30
100
AcDbLine
 10
189.378
 20
240.0
 30
0.0
 11
189.378
 21
228.0
 31
0.0
  0
ARC
  5
26D
330
242
100
AcDbEntity
  8
001
370
    30
100
AcDbCircle
 10
181.0
 20
248.0
 30
0.0
 40
8.0
100
AcDbArc
 50
90.0001
 51
270.0
  0
ARC
  5
26E
330
242
100
AcDbEntity
  8
001
370
    30
100
AcDbCircle
 10
180.112
 20
220.0
 30
0.0
 40
7.999999999999995
100
AcDbArc
 50
90.0001
 51
152.742
  0
LINE
  5
26F
330
242
100
AcDbEntity
  8
001
  6
CENTER
 62
     2
370
     9
100
AcDbLine
 10
181.0
 20
242.0
 30
0.0
 11
181.0
 21
254.0
 31
0.0
  0
LINE
  5
270
330
242
100
AcDbEntity
  8
001
370
    30
100
AcDbLine
 10
135.999
 20
260.0
 30
0.0
 11
135.999
 21
255.25
 31
0.0
  0
LINE
  5
271
330
242
100
AcDbEntity
  8
001
370
    30
100
AcDbLine
 10
182.623
 20
260.0
 30
0.0
 11
182.623
 21
256.0
 31
0.0
  0
LINE
  5
272
330
242
100
AcDbEntity
  8
001
370
    30
100
AcDbLine
 10
189.378
 20
260.0
 30
0.0
 11
189.378
 21
256.0
 31
0.0
  0
LINE
  5
273
330
242
100
AcDbEntity
  8
001
370
    30
100
AcDbLine
 10
135.999
 20
240.75
 30
0.0
 11
135.999
 21
236.0
 31
0.0
  0
LINE
  5
274
330
242
100
AcDbEntity
  8
001
370
    30
100
AcDbLine
 10
166.0
 20
260.0
 30
0.0
 11
166.0
 21
236.0
 31
0.0
  0
LINE
  5
275
330
242
100
AcDbEntity
  8
001
370
    30
100
AcDbLine
 10
168.0
 20
260.0
 30
0.0
 11
168.0
 21
236.0
 31
0.0
  0
LINE
  5
276
330
242
100
AcDbEntity
  8
001
370
    30
100
AcDbLine
 10
182.623
 20
223.664
 30
0.0
 11
182.623
 21
220.0
 31
0.0
  0
LINE
  5
277
330
242
100
AcDbEntity
  8
001
370
    30
100
AcDbLine
 10
189.378
 20
223.664
 30
0.0
 11
189.378
 21
220.0
 31
0.0
  0
DIMENSION
  5
278
330
242
100
AcDbEntity
  8
002
 62
     2
370
     9
100
AcDbDimension
  2
*D15
 10
135.999
 20
224.0
 30
0.0
 11
138.999
 21
227.0
 31
0.0
 70
   160
  1
\W0.833333;６
 71
     5
 42
-1.0
  3
Standard
100
AcDbAlignedDimension
 13
141.999
 23
242.25
 33
0.0
 14
135.999
 24
234.0
 34
0.0
 50
180.0
100
AcDbRotatedDimension
  0
DIMENSION
  5
279
330
242
100
AcDbEntity
  8
002
 62
     2
370
     9
100
AcDbDimension
  2
*D16
 10
128.0
 20
254.25
 30
0.0
 11
125.0
 21
248.0
 31
0.0
 70
   160
  1
\W0.889831;１２.５
 71
     5
 42
-1.0
  3
Standard
100
AcDbAlignedDimension
 13
135.999
 23
241.75
 33
0.0
 14
135.999
 24
254.25
 34
0.0
 50
90.0
100
AcDbRotatedDimension
  0
LINE
  5
27A
330
242
100
AcDbEntity
  8
001
370
    30
100
AcDbLine
 10
194.0
 20
228.0
 30
0.0
 11
187.875
 21
228.0
 31
0.0
  0
LINE
  5
27B
330
242
100
AcDbEntity
  8
001
370
    30
100
AcDbLine
 10
194.0
 20
260.0
 30
0.0
 11
194.0
 21
220.0
 31
0.0
  0
DIMENSION
  5
27C
330
242
100
AcDbEntity
  8
002
 62
     2
370
     9
100
AcDbDimension
  2
*D17
 10
208.0
 20
256.0
 30
0.0
 11
205.0
 21
248.0
 31
0.0
 70
   160
  1
\W0.833333;１６
 71
     5
 42
-1.0
  3
Standard
100
AcDbAlignedDimension
 13
195.0
 23
240.0
 33
0.0
 14
195.0
 24
256.0
 34
0.0
 50
90.0
100
AcDbRotatedDimension
  0
DIMENSION
  5
27D
330
242
100
AcDbEntity
  8
002
 62
     2
370
     9
100
AcDbDimension
  2
*D18
 10
194.0
 20
232.0
 30
0.0
 11
178.0
 21
235.0
 31
0.0
 70
   160
  1
\W0.833333;２１
 71
     5
 42
-1.0
  3
Standard
100
AcDbAlignedDimension
 13
173.0
 23
247.0
 33
0.0
 14
194.0
 24
233.0
 34
0.0
100
AcDbRotatedDimension
  0
DIMENSION
  5
27E
330
242
100
AcDbEntity
  8
002
 62
     2
370
     9
100
AcDbDimension
  2
*D19
 10
168.0
 20
266.59802
 30
0.0
 11
163.5
 21
269.59802
 31
0.0
 70
   160
  1
\A1;\W0.833333;９{\H3.200000;\W0.937500;%%p０.１}
 71
     5
 42
-1.0
  3
Standard
100
AcDbAlignedDimension
 13
159.0
 23
254.25
 33
0.0
 14
168.0
 24
261.0
 34
0.0
100
AcDbRotatedDimension
1001
ACAD
1000
DSTYLE
1002
{
1070
    48
1040
0.1
1070
    47
1040
0.1
1070
   284
1070
     8
1070
   272
1070
     1
1070
    71
1070
     1
1002
}
  0
TEXT
  5
27F
330
242
100
AcDbEntity
  8
002
 62
     3
370
     9
100
AcDbText
 10
129.0
 20
267.59802
 30
0.0
 40
4.0
  1
２－%%c７.５
 41
0.896739
100
AcDbText
  0
POLYLINE
  5
280
330
242
100
AcDbEntity
  8
002
 62
     2
370
     9
100
AcDb2dPolyline
 66
     1
 10
0.0
 20
0.0
 30
0.0
  0
VERTEX
  5
282
330
280
100
AcDbEntity
  8
002
 62
     2
370
     9
100
AcDbVertex
100
AcDb2dVertex
 10
157.526802
 20
253.05507
 30
0.0
  0
VERTEX
  5
283
330
280
100
AcDbEntity
  8
002
 62
     2
370
     9
100
AcDbVertex
100
AcDb2dVertex
 10
157.679029
 20
251.509635
 30
0.0
  0
VERTEX
  5
284
330
280
100
AcDbEntity
  8
002
 62
     2
370
     9
100
AcDbVertex
100
AcDb2dVertex
 10
156.774479
 20
252.771907
 30
0.0
  0
SEQEND
  5
281
330
280
100
AcDbEntity
  8
002
 62
     2
370
     9
  0
POLYLINE
  5
285
330
242
100
AcDbEntity
  8
002
 62
     2
370
     9
100
AcDb2dPolyline
 66
     1
 10
0.0
 20
0.0
 30
0.0
  0
VERTEX
  5
287
330
285
100
AcDbEntity
  8
002
 62
     2
370
     9
100
AcDbVertex
100
AcDb2dVertex
 10
157.679029
 20
251.509635
 30
0.0
  0
VERTEX
  5
288
330
285
100
AcDbEntity
  8
002
 62
     2
370
     9
100
AcDbVertex
100
AcDb2dVertex
 10
152.0
 20
266.59802
 30
0.0
  0
VERTEX
  5
289
330
285
100
AcDbEntity
  8
002
 62
     2
370
     9
100
AcDbVertex
100
AcDb2dVertex
 10
128.0
 20
266.59802
 30
0.0
  0
SEQEND
  5
286
330
285
100
AcDbEntity
  8
002
 62
     2
370
     9
  0
ENDBLK
  5
244
330
242
100
AcDbEntity
  8
0
100
AcDbBlockEnd
  0
BLOCK
  5
28B
330
28A
100
AcDbEntity
  8
0
100
AcDbBlockBegin
  2
*D21
 70
     1
 10
0.0
 20
0.0
 30
0.0
  3
*D21
  1

  0
LINE
  5
28D
330
28A
100
AcDbEntity
  8
002
 62
     2
370
     9
100
AcDbLine
 10
159.0
 20
46.25
 30
0.0
 11
159.0
 21
57.0
 31
0.0
  0
LINE
  5
28E
330
28A
100
AcDbEntity
  8
002
 62
     2
370
     9
100
AcDbLine
 10
168.0
 20
53.0
 30
0.0
 11
168.0
 21
57.0
 31
0.0
  0
LINE
  5
28F
330
28A
100
AcDbEntity
  8
002
 62
     2
370
     9
100
AcDbLine
 10
159.0
 20
56.0
 30
0.0
 11
168.0
 21
56.0
 31
0.0
  0
POLYLINE
  5
290
330
28A
100
AcDbEntity
  8
002
 62
     2
370
     9
100
AcDb2dPolyline
 66
     1
 10
0.0
 20
0.0
 30
0.0
  0
VERTEX
  5
292
330
290
100
AcDbEntity
  8
002
 62
     2
370
     9
100
AcDbVertex
100
AcDb2dVertex
 10
160.5
 20
55.598076
 30
0.0
  0
VERTEX
  5
293
330
290
100
AcDbEntity
  8
002
 62
     2
370
     9
100
AcDbVertex
100
AcDb2dVertex
 10
159.0
 20
56.0
 30
0.0
  0
VERTEX
  5
294
330
290
100
AcDbEntity
  8
002
 62
     2
370
     9
100
AcDbVertex
100
AcDb2dVertex
 10
160.5
 20
56.401924
 30
0.0
  0
SEQEND
  5
291
330
290
100
AcDbEntity
  8
002
 62
     2
370
     9
  0
POLYLINE
  5
295
330
28A
100
AcDbEntity
  8
002
 62
     2
370
     9
100
AcDb2dPolyline
 66
     1
 10
0.0
 20
0.0
 30
0.0
  0
VERTEX
  5
297
330
295
100
AcDbEntity
  8
002
 62
     2
370
     9
100
AcDbVertex
100
AcDb2dVertex
 10
166.5
 20
56.401924
 30
0.0
  0
VERTEX
  5
298
330
295
100
AcDbEntity
  8
002
 62
     2
370
     9
100
AcDbVertex
100
AcDb2dVertex
 10
168.0
 20
56.0
 30
0.0
  0
VERTEX
  5
299
330
295
100
AcDbEntity
  8
002
 62
     2
370
     9
100
AcDbVertex
100
AcDb2dVertex
 10
166.5
 20
55.598076
 30
0.0
  0
SEQEND
  5
296
330
295
100
AcDbEntity
  8
002
 62
     2
370
     9
  0
MTEXT
  5
29A
330
28A
100
AcDbEntity
  8
002
 62
     3
370
     9
100
AcDbMText
 10
163.5
 20
59.0
 30
0.0
 40
4.0
 41
0.0
 71
     5
 72
     1
  1
\A1;\W0.833333;９{\H3.200000;\W0.937500;%%p０.１}
 73
     1
 44
1.0
  0
POINT
  5
29B
330
28A
100
AcDbEntity
  8
002
 62
     2
370
     9
100
AcDbPoint
 10
159.0
 20
46.25
 30
0.0
  0
POINT
  5
29C
330
28A
100
AcDbEntity
  8
002
 62
     2
370
     9
100
AcDbPoint
 10
168.0
 20
53.0
 30
0.0
  0
POINT
  5
29D
330
28A
100
AcDbEntity
  8
002
 62
     2
370
     9
100
AcDbPoint
 10
168.0
 20
56.0
 30
0.0
  0
ENDBLK
  5
28C
330
28A
100
AcDbEntity
  8
0
100
AcDbBlockEnd
  0
BLOCK
  5
29F
330
29E
100
AcDbEntity
  8
0
100
AcDbBlockBegin
  2
*D22
 70
     1
 10
0.0
 20
0.0
 30
0.0
  3
*D22
  1

  0
LINE
  5
2A1
330
29E
100
AcDbEntity
  8
002
 62
     2
370
     9
100
AcDbLine
 10
145.998981
 20
45.749983
 30
0.0
 11
145.998945
 21
56.999928
 31
0.0
  0
LINE
  5
2A2
330
29E
100
AcDbEntity
  8
002
 62
     2
370
     9
100
AcDbLine
 10
135.998958
 20
52.999896
 30
0.0
 11
135.998945
 21
56.999896
 31
0.0
  0
LINE
  5
2A3
330
29E
100
AcDbEntity
  8
002
 62
     2
370
     9
100
AcDbLine
 10
145.998948
 20
55.999928
 30
0.0
 11
135.998948
 21
55.999896
 31
0.0
  0
POLYLINE
  5
2A4
330
29E
100
AcDbEntity
  8
002
 62
     2
370
     9
100
AcDb2dPolyline
 66
     1
 10
0.0
 20
0.0
 30
0.0
  0
VERTEX
  5
2A6
330
2A4
100
AcDbEntity
  8
002
 62
     2
370
     9
100
AcDbVertex
100
AcDb2dVertex
 10
144.498946
 20
56.401847
 30
0.0
  0
VERTEX
  5
2A7
330
2A4
100
AcDbEntity
  8
002
 62
     2
370
     9
100
AcDbVertex
100
AcDb2dVertex
 10
145.998948
 20
55.999928
 30
0.0
  0
VERTEX
  5
2A8
330
2A4
100
AcDbEntity
  8
002
 62
     2
370
     9
100
AcDbVertex
100
AcDb2dVertex
 10
144.498949
 20
55.597999
 30
0.0
  0
SEQEND
  5
2A5
330
2A4
100
AcDbEntity
  8
002
 62
     2
370
     9
  0
POLYLINE
  5
2A9
330
29E
100
AcDbEntity
  8
002
 62
     2
370
     9
100
AcDb2dPolyline
 66
     1
 10
0.0
 20
0.0
 30
0.0
  0
VERTEX
  5
2AB
330
2A9
100
AcDbEntity
  8
002
 62
     2
370
     9
100
AcDbVertex
100
AcDb2dVertex
 10
137.498949
 20
55.597977
 30
0.0
  0
VERTEX
  5
2AC
330
2A9
100
AcDbEntity
  8
002
 62
     2
370
     9
100
AcDbVertex
100
AcDb2dVertex
 10
135.998948
 20
55.999896
 30
0.0
  0
VERTEX
  5
2AD
330
2A9
100
AcDbEntity
  8
002
 62
     2
370
     9
100
AcDbVertex
100
AcDb2dVertex
 10
137.498946
 20
56.401824
 30
0.0
  0
SEQEND
  5
2AA
330
2A9
100
AcDbEntity
  8
002
 62
     2
370
     9
  0
MTEXT
  5
2AE
330
29E
100
AcDbEntity
  8
002
 62
     3
370
     9
100
AcDbMText
 10
140.998948
 20
58.999928
 30
0.0
 40
4.0
 41
0.0
 71
     5
 72
     1
  1
\W0.833333;１０
 73
     1
 44
1.0
  0
POINT
  5
2AF
330
29E
100
AcDbEntity
  8
002
 62
     2
370
     9
100
AcDbPoint
 10
145.998981
 20
45.749983
 30
0.0
  0
POINT
  5
2B0
330
29E
100
AcDbEntity
  8
002
 62
     2
370
     9
100
AcDbPoint
 10
135.998958
 20
52.999896
 30
0.0
  0
POINT
  5
2B1
330
29E
100
AcDbEntity
  8
002
 62
     2
370
     9
100
AcDbPoint
 10
135.998948
 20
55.999896
 30
0.0
  0
ENDBLK
  5
2A0
330
29E
100
AcDbEntity
  8
0
100
AcDbBlockEnd
  0
BLOCK
  5
2B3
330
2B2
100
AcDbEntity
  8
0
100
AcDbBlockBegin
  2
*D23
 70
     1
 10
0.0
 20
0.0
 30
0.0
  3
*D23
  1

  0
LINE
  5
2B5
330
2B2
100
AcDbEntity
  8
002
 62
     2
370
     9
100
AcDbLine
 10
135.999
 20
33.749945
 30
0.0
 11
127.0
 21
33.749945
 31
0.0
  0
LINE
  5
2B6
330
2B2
100
AcDbEntity
  8
002
 62
     2
370
     9
100
AcDbLine
 10
135.999
 20
46.249945
 30
0.0
 11
127.0
 21
46.249945
 31
0.0
  0
LINE
  5
2B7
330
2B2
100
AcDbEntity
  8
002
 62
     2
370
     9
100
AcDbLine
 10
128.0
 20
33.749945
 30
0.0
 11
128.0
 21
46.249945
 31
0.0
  0
POLYLINE
  5
2B8
330
2B2
100
AcDbEntity
  8
002
 62
     2
370
     9
100
AcDb2dPolyline
 66
     1
 10
0.0
 20
0.0
 30
0.0
  0
VERTEX
  5
2BA
330
2B8
100
AcDbEntity
  8
002
 62
     2
370
     9
100
AcDbVertex
100
AcDb2dVertex
 10
128.401924
 20
35.249945
 30
0.0
  0
VERTEX
  5
2BB
330
2B8
100
AcDbEntity
  8
002
 62
     2
370
     9
100
AcDbVertex
100
AcDb2dVertex
 10
128.0
 20
33.749945
 30
0.0
  0
VERTEX
  5
2BC
330
2B8
100
AcDbEntity
  8
002
 62
     2
370
     9
100
AcDbVertex
100
AcDb2dVertex
 10
127.598076
 20
35.249945
 30
0.0
  0
SEQEND
  5
2B9
330
2B8
100
AcDbEntity
  8
002
 62
     2
370
     9
  0
POLYLINE
  5
2BD
330
2B2
100
AcDbEntity
  8
002
 62
     2
370
     9
100
AcDb2dPolyline
 66
     1
 10
0.0
 20
0.0
 30
0.0
  0
VERTEX
  5
2BF
330
2BD
100
AcDbEntity
  8
002
 62
     2
370
     9
100
AcDbVertex
100
AcDb2dVertex
 10
127.598076
 20
44.749945
 30
0.0
  0
VERTEX
  5
2C0
330
2BD
100
AcDbEntity
  8
002
 62
     2
370
     9
100
AcDbVertex
100
AcDb2dVertex
 10
128.0
 20
46.249945
 30
0.0
  0
VERTEX
  5
2C1
330
2BD
100
AcDbEntity
  8
002
 62
     2
370
     9
100
AcDbVertex
100
AcDb2dVertex
 10
128.401924
 20
44.749945
 30
0.0
  0
SEQEND
  5
2BE
330
2BD
100
AcDbEntity
  8
002
 62
     2
370
     9
  0
MTEXT
  5
2C2
330
2B2
100
AcDbEntity
  8
002
 62
     3
370
     9
100
AcDbMText
 10
125.0
 20
39.999945
 30
0.0
 40
4.0
 41
0.0
 71
     5
 72
     1
  1
\W0.889831;１２.５
 11
-4.371139000186241E-8
 21
0.999999999999999
 31
0.0
 73
     1
 44
1.0
  0
POINT
  5
2C3
330
2B2
100
AcDbEntity
  8
002
 62
     2
370
     9
100
AcDbPoint
 10
135.999
 20
33.749945
 30
0.0
  0
POINT
  5
2C4
330
2B2
100
AcDbEntity
  8
002
 62
     2
370
     9
100
AcDbPoint
 10
135.999
 20
46.249945
 30
0.0
  0
POINT
  5
2C5
330
2B2
100
AcDbEntity
  8
002
 62
     2
370
     9
100
AcDbPoint
 10
128.0
 20
46.249945
 30
0.0
  0
ENDBLK
  5
2B4
330
2B2
100
AcDbEntity
  8
0
100
AcDbBlockEnd
  0
BLOCK
  5
2C7
330
2C6
100
AcDbEntity
  8
0
100
AcDbBlockBegin
  2
*D24
 70
     1
 10
0.0
 20
0.0
 30
0.0
  3
*D24
  1

  0
LINE
  5
2C9
330
2C6
100
AcDbEntity
  8
002
 62
     2
370
     9
100
AcDbLine
 10
173.0
 20
38.000045
 30
0.0
 11
173.0
 21
15.0
 31
0.0
  0
LINE
  5
2CA
330
2C6
100
AcDbEntity
  8
002
 62
     2
370
     9
100
AcDbLine
 10
194.0
 20
27.0
 30
0.0
 11
194.0
 21
15.0
 31
0.0
  0
LINE
  5
2CB
330
2C6
100
AcDbEntity
  8
002
 62
     2
370
     9
100
AcDbLine
 10
173.0
 20
16.0
 30
0.0
 11
194.0
 21
16.0
 31
0.0
  0
POLYLINE
  5
2CC
330
2C6
100
AcDbEntity
  8
002
 62
     2
370
     9
100
AcDb2dPolyline
 66
     1
 10
0.0
 20
0.0
 30
0.0
  0
VERTEX
  5
2CE
330
2CC
100
AcDbEntity
  8
002
 62
     2
370
     9
100
AcDbVertex
100
AcDb2dVertex
 10
174.5
 20
15.598076
 30
0.0
  0
VERTEX
  5
2CF
330
2CC
100
AcDbEntity
  8
002
 62
     2
370
     9
100
AcDbVertex
100
AcDb2dVertex
 10
173.0
 20
16.0
 30
0.0
  0
VERTEX
  5
2D0
330
2CC
100
AcDbEntity
  8
002
 62
     2
370
     9
100
AcDbVertex
100
AcDb2dVertex
 10
174.5
 20
16.401924
 30
0.0
  0
SEQEND
  5
2CD
330
2CC
100
AcDbEntity
  8
002
 62
     2
370
     9
  0
POLYLINE
  5
2D1
330
2C6
100
AcDbEntity
  8
002
 62
     2
370
     9
100
AcDb2dPolyline
 66
     1
 10
0.0
 20
0.0
 30
0.0
  0
VERTEX
  5
2D3
330
2D1
100
AcDbEntity
  8
002
 62
     2
370
     9
100
AcDbVertex
100
AcDb2dVertex
 10
192.5
 20
16.401924
 30
0.0
  0
VERTEX
  5
2D4
330
2D1
100
AcDbEntity
  8
002
 62
     2
370
     9
100
AcDbVertex
100
AcDb2dVertex
 10
194.0
 20
16.0
 30
0.0
  0
VERTEX
  5
2D5
330
2D1
100
AcDbEntity
  8
002
 62
     2
370
     9
100
AcDbVertex
100
AcDb2dVertex
 10
192.5
 20
15.598076
 30
0.0
  0
SEQEND
  5
2D2
330
2D1
100
AcDbEntity
  8
002
 62
     2
370
     9
  0
MTEXT
  5
2D6
330
2C6
100
AcDbEntity
  8
002
 62
     3
370
     9
100
AcDbMText
 10
183.5
 20
19.0
 30
0.0
 40
4.0
 41
0.0
 71
     5
 72
     1
  1
\W0.833333;２１
 73
     1
 44
1.0
  0
POINT
  5
2D7
330
2C6
100
AcDbEntity
  8
002
 62
     2
370
     9
100
AcDbPoint
 10
173.0
 20
38.000045
 30
0.0
  0
POINT
  5
2D8
330
2C6
100
AcDbEntity
  8
002
 62
     2
370
     9
100
AcDbPoint
 10
194.0
 20
27.0
 30
0.0
  0
POINT
  5
2D9
330
2C6
100
AcDbEntity
  8
002
 62
     2
370
     9
100
AcDbPoint
 10
194.0
 20
16.0
 30
0.0
  0
ENDBLK
  5
2C8
330
2C6
100
AcDbEntity
  8
0
100
AcDbBlockEnd
  0
BLOCK
  5
2DB
330
2DA
100
AcDbEntity
  8
0
100
AcDbBlockBegin
  2
*D25
 70
     1
 10
0.0
 20
0.0
 30
0.0
  3
*D25
  1

  0
LINE
  5
2DD
330
2DA
100
AcDbEntity
  8
002
 62
     2
370
     9
100
AcDbLine
 10
195.0
 20
31.000045
 30
0.0
 11
209.0
 21
31.000045
 31
0.0
  0
LINE
  5
2DE
330
2DA
100
AcDbEntity
  8
002
 62
     2
370
     9
100
AcDbLine
 10
195.0
 20
49.000045
 30
0.0
 11
209.0
 21
49.000045
 31
0.0
  0
LINE
  5
2DF
330
2DA
100
AcDbEntity
  8
002
 62
     2
370
     9
100
AcDbLine
 10
208.0
 20
31.000045
 30
0.0
 11
208.0
 21
49.000045
 31
0.0
  0
POLYLINE
  5
2E0
330
2DA
100
AcDbEntity
  8
002
 62
     2
370
     9
100
AcDb2dPolyline
 66
     1
 10
0.0
 20
0.0
 30
0.0
  0
VERTEX
  5
2E2
330
2E0
100
AcDbEntity
  8
002
 62
     2
370
     9
100
AcDbVertex
100
AcDb2dVertex
 10
208.401924
 20
32.500045
 30
0.0
  0
VERTEX
  5
2E3
330
2E0
100
AcDbEntity
  8
002
 62
     2
370
     9
100
AcDbVertex
100
AcDb2dVertex
 10
208.0
 20
31.000045
 30
0.0
  0
VERTEX
  5
2E4
330
2E0
100
AcDbEntity
  8
002
 62
     2
370
     9
100
AcDbVertex
100
AcDb2dVertex
 10
207.598076
 20
32.500045
 30
0.0
  0
SEQEND
  5
2E1
330
2E0
100
AcDbEntity
  8
002
 62
     2
370
     9
  0
POLYLINE
  5
2E5
330
2DA
100
AcDbEntity
  8
002
 62
     2
370
     9
100
AcDb2dPolyline
 66
     1
 10
0.0
 20
0.0
 30
0.0
  0
VERTEX
  5
2E7
330
2E5
100
AcDbEntity
  8
002
 62
     2
370
     9
100
AcDbVertex
100
AcDb2dVertex
 10
207.598076
 20
47.500045
 30
0.0
  0
VERTEX
  5
2E8
330
2E5
100
AcDbEntity
  8
002
 62
     2
370
     9
100
AcDbVertex
100
AcDb2dVertex
 10
208.0
 20
49.000045
 30
0.0
  0
VERTEX
  5
2E9
330
2E5
100
AcDbEntity
  8
002
 62
     2
370
     9
100
AcDbVertex
100
AcDb2dVertex
 10
208.401924
 20
47.500045
 30
0.0
  0
SEQEND
  5
2E6
330
2E5
100
AcDbEntity
  8
002
 62
     2
370
     9
  0
MTEXT
  5
2EA
330
2DA
100
AcDbEntity
  8
002
 62
     3
370
     9
100
AcDbMText
 10
205.0
 20
40.000045
 30
0.0
 40
4.0
 41
0.0
 71
     5
 72
     1
  1
\W0.833333;１８
 11
-4.371139000186241E-8
 21
0.999999999999999
 31
0.0
 73
     1
 44
1.0
  0
POINT
  5
2EB
330
2DA
100
AcDbEntity
  8
002
 62
     2
370
     9
100
AcDbPoint
 10
195.0
 20
31.000045
 30
0.0
  0
POINT
  5
2EC
330
2DA
100
AcDbEntity
  8
002
 62
     2
370
     9
100
AcDbPoint
 10
195.0
 20
49.000045
 30
0.0
  0
POINT
  5
2ED
330
2DA
100
AcDbEntity
  8
002
 62
     2
370
     9
100
AcDbPoint
 10
208.0
 20
49.000045
 30
0.0
  0
ENDBLK
  5
2DC
330
2DA
100
AcDbEntity
  8
0
100
AcDbBlockEnd
  0
BLOCK
  5
2EF
330
2EE
100
AcDbEntity
  8
0
100
AcDbBlockBegin
  2
HSK63A-8
 70
     0
 10
0.0
 20
0.0
 30
0.0
  3
HSK63A-8
  1

  0
DIMENSION
  5
2F1
330
2EE
100
AcDbEntity
  8
002
 62
     2
370
     9
100
AcDbDimension
  2
*D21
 10
168.0
 20
56.0
 30
0.0
 11
163.5
 21
59.0
 31
0.0
 70
   160
  1
\A1;\W0.833333;９{\H3.200000;\W0.937500;%%p０.１}
 71
     5
 42
-1.0
  3
Standard
100
AcDbAlignedDimension
 13
159.0
 23
46.25
 33
0.0
 14
168.0
 24
53.0
 34
0.0
100
AcDbRotatedDimension
1001
ACAD
1000
DSTYLE
1002
{
1070
    48
1040
0.1
1070
    47
1040
0.1
1070
   284
1070
     8
1070
   272
1070
     1
1070
    71
1070
     1
1002
}
  0
LINE
  5
2F2
330
2EE
100
AcDbEntity
  8
001
370
    30
100
AcDbLine
 10
184.125
 20
49.000045
 30
0.0
 11
184.125
 21
52.0
 31
0.0
  0
LINE
  5
2F3
330
2EE
100
AcDbEntity
  8
001
370
    30
100
AcDbLine
 10
187.875
 20
49.000045
 30
0.0
 11
187.875
 21
52.0
 31
0.0
  0
LINE
  5
2F4
330
2EE
100
AcDbEntity
  8
001
370
    30
100
AcDbLine
 10
187.875
 20
31.000045
 30
0.0
 11
187.875
 21
28.0
 31
0.0
  0
LINE
  5
2F5
330
2EE
100
AcDbEntity
  8
001
370
    30
100
AcDbLine
 10
184.125
 20
31.000045
 30
0.0
 11
184.125
 21
28.0
 31
0.0
  0
LINE
  5
2F6
330
2EE
100
AcDbEntity
  8
001
370
    30
100
AcDbLine
 10
194.0
 20
31.000045
 30
0.0
 11
181.0
 21
31.000045
 31
0.0
  0
LINE
  5
2F7
330
2EE
100
AcDbEntity
  8
001
370
    30
100
AcDbLine
 10
194.0
 20
49.000045
 30
0.0
 11
181.0
 21
49.000045
 31
0.0
  0
CIRCLE
  5
2F8
330
2EE
100
AcDbEntity
  8
001
370
     9
100
AcDbCircle
 10
159.0
 20
40.0
 30
0.0
 40
3.75
  0
CIRCLE
  5
2F9
330
2EE
100
AcDbEntity
  8
001
 62
     2
370
     9
100
AcDbCircle
 10
159.0
 20
40.0
 30
0.0
 40
4.25
  0
LINE
  5
2FA
330
2EE
100
AcDbEntity
  8
001
  6
CENTER
 62
     2
370
     9
100
AcDbLine
 10
159.0
 20
34.75
 30
0.0
 11
159.0
 21
45.25
 31
0.0
  0
LINE
  5
2FB
330
2EE
100
AcDbEntity
  8
001
370
    30
100
AcDbLine
 10
173.0
 20
41.000045
 30
0.0
 11
173.0
 21
39.000045
 31
0.0
  0
ARC
  5
2FC
330
2EE
100
AcDbEntity
  8
001
370
    30
100
AcDbCircle
 10
181.0
 20
39.000045
 30
0.0
 40
8.0
100
AcDbArc
 50
180.0
 51
270.0
  0
ARC
  5
2FD
330
2EE
100
AcDbEntity
  8
001
370
    30
100
AcDbCircle
 10
181.0
 20
41.000045
 30
0.0
 40
8.0
100
AcDbArc
 50
90.0
 51
180.0
  0
LINE
  5
2FE
330
2EE
100
AcDbEntity
  8
001
370
    30
100
AcDbLine
 10
145.999
 20
44.749945
 30
0.0
 11
145.999
 21
35.249945
 31
0.0
  0
LINE
  5
2FF
330
2EE
100
AcDbEntity
  8
001
370
    30
100
AcDbLine
 10
136.999
 20
46.249945
 30
0.0
 11
144.499
 21
46.249945
 31
0.0
  0
LINE
  5
300
330
2EE
100
AcDbEntity
  8
001
370
    30
100
AcDbLine
 10
136.999
 20
33.749945
 30
0.0
 11
144.499
 21
33.749945
 31
0.0
  0
ARC
  5
301
330
2EE
100
AcDbEntity
  8
001
370
    30
100
AcDbCircle
 10
144.499
 20
44.749945
 30
0.0
 40
1.5
100
AcDbArc
 50
0.0
 51
90.0
  0
ARC
  5
302
330
2EE
100
AcDbEntity
  8
001
370
    30
100
AcDbCircle
 10
144.499
 20
35.249945
 30
0.0
 40
1.5
100
AcDbArc
 50
270.0
 51
0.0
  0
LINE
  5
303
330
2EE
100
AcDbEntity
  8
001
370
    30
100
AcDbLine
 10
135.999
 20
47.249945
 30
0.0
 11
136.999
 21
46.249945
 31
0.0
  0
LINE
  5
304
330
2EE
100
AcDbEntity
  8
001
370
    30
100
AcDbLine
 10
136.999
 20
33.749945
 30
0.0
 11
135.999
 21
32.749945
 31
0.0
  0
LINE
  5
305
330
2EE
100
AcDbEntity
  8
001
370
    30
100
AcDbLine
 10
182.623
 20
52.0
 30
0.0
 11
182.623
 21
49.000045
 31
0.0
  0
LINE
  5
306
330
2EE
100
AcDbEntity
  8
001
370
    30
100
AcDbLine
 10
189.378
 20
52.0
 30
0.0
 11
189.378
 21
49.000045
 31
0.0
  0
LINE
  5
307
330
2EE
100
AcDbEntity
  8
001
370
    30
100
AcDbLine
 10
135.999
 20
52.0
 30
0.0
 11
135.999
 21
47.249945
 31
0.0
  0
LINE
  5
308
330
2EE
100
AcDbEntity
  8
001
370
    30
100
AcDbLine
 10
135.999
 20
32.749945
 30
0.0
 11
135.999
 21
28.0
 31
0.0
  0
LINE
  5
309
330
2EE
100
AcDbEntity
  8
001
370
    30
100
AcDbLine
 10
182.623
 20
31.000045
 30
0.0
 11
182.623
 21
28.0
 31
0.0
  0
LINE
  5
30A
330
2EE
100
AcDbEntity
  8
001
370
    30
100
AcDbLine
 10
189.378
 20
31.000045
 30
0.0
 11
189.378
 21
28.0
 31
0.0
  0
LINE
  5
30B
330
2EE
100
AcDbEntity
  8
001
370
    30
100
AcDbLine
 10
166.0
 20
52.0
 30
0.0
 11
166.0
 21
28.0
 31
0.0
  0
LINE
  5
30C
330
2EE
100
AcDbEntity
  8
001
370
    30
100
AcDbLine
 10
168.0
 20
52.0
 30
0.0
 11
168.0
 21
28.0
 31
0.0
  0
DIMENSION
  5
30D
330
2EE
100
AcDbEntity
  8
002
 62
     2
370
     9
100
AcDbDimension
  2
*D22
 10
135.998948
 20
55.999896
 30
0.0
 11
140.998948
 21
58.999928
 31
0.0
 70
   160
  1
\W0.833333;１０
 71
     5
 42
-1.0
  3
Standard
100
AcDbAlignedDimension
 13
145.998981
 23
45.749983
 33
0.0
 14
135.998958
 24
52.999896
 34
0.0
 50
180.000187
100
AcDbRotatedDimension
  0
DIMENSION
  5
30E
330
2EE
100
AcDbEntity
  8
002
 62
     2
370
     9
100
AcDbDimension
  2
*D23
 10
128.0
 20
46.249945
 30
0.0
 11
125.0
 21
39.999945
 31
0.0
 70
   160
  1
\W0.889831;１２.５
 71
     5
 42
-1.0
  3
Standard
100
AcDbAlignedDimension
 13
135.999
 23
33.749945
 33
0.0
 14
135.999
 24
46.249945
 34
0.0
 50
90.0
100
AcDbRotatedDimension
  0
LINE
  5
30F
330
2EE
100
AcDbEntity
  8
001
370
    30
100
AcDbLine
 10
194.0
 20
52.0
 30
0.0
 11
194.0
 21
28.0
 31
0.0
  0
LINE
  5
310
330
2EE
100
AcDbEntity
  8
001
  6
CENTER
 62
     2
370
    30
100
AcDbLine
 10
195.0
 20
40.000044
 30
0.0
 11
134.999
 21
39.999946
 31
0.0
  0
DIMENSION
  5
311
330
2EE
100
AcDbEntity
  8
002
 62
     2
370
     9
100
AcDbDimension
  2
*D24
 10
194.0
 20
16.0
 30
0.0
 11
183.5
 21
19.0
 31
0.0
 70
   160
  1
\W0.833333;２１
 71
     5
 42
-1.0
  3
Standard
100
AcDbAlignedDimension
 13
173.0
 23
38.000045
 33
0.0
 14
194.0
 24
27.0
 34
0.0
100
AcDbRotatedDimension
  0
DIMENSION
  5
312
330
2EE
100
AcDbEntity
  8
002
 62
     2
370
     9
100
AcDbDimension
  2
*D25
 10
208.0
 20
49.000045
 30
0.0
 11
205.0
 21
40.000045
 31
0.0
 70
   160
  1
\W0.833333;１８
 71
     5
 42
-1.0
  3
Standard
100
AcDbAlignedDimension
 13
195.0
 23
31.000045
 33
0.0
 14
195.0
 24
49.000045
 34
0.0
 50
90.0
100
AcDbRotatedDimension
  0
ENDBLK
  5
2F0
330
2EE
100
AcDbEntity
  8
0
100
AcDbBlockEnd
  0
BLOCK
  5
314
330
313
100
AcDbEntity
  8
0
100
AcDbBlockBegin
  2
*D27
 70
     1
 10
0.0
 20
0.0
 30
0.0
  3
*D27
  1

  0
LINE
  5
316
330
313
100
AcDbEntity
  8
002
 62
     2
370
     9
100
AcDbLine
 10
160.7
 20
119.995
 30
0.0
 11
127.0
 21
119.995
 31
0.0
  0
LINE
  5
317
330
313
100
AcDbEntity
  8
002
 62
     2
370
     9
100
AcDbLine
 10
160.7
 20
168.005
 30
0.0
 11
127.0
 21
168.005
 31
0.0
  0
LINE
  5
318
330
313
100
AcDbEntity
  8
002
 62
     2
370
     9
100
AcDbLine
 10
128.0
 20
119.995
 30
0.0
 11
128.0
 21
168.005
 31
0.0
  0
POLYLINE
  5
319
330
313
100
AcDbEntity
  8
002
 62
     2
370
     9
100
AcDb2dPolyline
 66
     1
 10
0.0
 20
0.0
 30
0.0
  0
VERTEX
  5
31B
330
319
100
AcDbEntity
  8
002
 62
     2
370
     9
100
AcDbVertex
100
AcDb2dVertex
 10
128.401924
 20
121.495
 30
0.0
  0
VERTEX
  5
31C
330
319
100
AcDbEntity
  8
002
 62
     2
370
     9
100
AcDbVertex
100
AcDb2dVertex
 10
128.0
 20
119.995
 30
0.0
  0
VERTEX
  5
31D
330
319
100
AcDbEntity
  8
002
 62
     2
370
     9
100
AcDbVertex
100
AcDb2dVertex
 10
127.598076
 20
121.495
 30
0.0
  0
SEQEND
  5
31A
330
319
100
AcDbEntity
  8
002
 62
     2
370
     9
  0
POLYLINE
  5
31E
330
313
100
AcDbEntity
  8
002
 62
     2
370
     9
100
AcDb2dPolyline
 66
     1
 10
0.0
 20
0.0
 30
0.0
  0
VERTEX
  5
320
330
31E
100
AcDbEntity
  8
002
 62
     2
370
     9
100
AcDbVertex
100
AcDb2dVertex
 10
127.598076
 20
166.505
 30
0.0
  0
VERTEX
  5
321
330
31E
100
AcDbEntity
  8
002
 62
     2
370
     9
100
AcDbVertex
100
AcDb2dVertex
 10
128.0
 20
168.005
 30
0.0
  0
VERTEX
  5
322
330
31E
100
AcDbEntity
  8
002
 62
     2
370
     9
100
AcDbVertex
100
AcDb2dVertex
 10
128.401924
 20
166.505
 30
0.0
  0
SEQEND
  5
31F
330
31E
100
AcDbEntity
  8
002
 62
     2
370
     9
  0
MTEXT
  5
323
330
313
100
AcDbEntity
  8
002
 62
     3
370
     9
100
AcDbMText
 10
125.4
 20
144.0
 30
0.0
 40
3.2
 41
0.0
 71
     5
 72
     1
  1
\W0.896739;%%c４８.０１
 11
-4.371139000186241E-8
 21
0.999999999999999
 31
0.0
 73
     1
 44
1.0
  0
POINT
  5
324
330
313
100
AcDbEntity
  8
002
 62
     2
370
     9
100
AcDbPoint
 10
160.7
 20
119.995
 30
0.0
  0
POINT
  5
325
330
313
100
AcDbEntity
  8
002
 62
     2
370
     9
100
AcDbPoint
 10
160.7
 20
168.005
 30
0.0
  0
POINT
  5
326
330
313
100
AcDbEntity
  8
002
 62
     2
370
     9
100
AcDbPoint
 10
128.0
 20
168.005
 30
0.0
  0
ENDBLK
  5
315
330
313
100
AcDbEntity
  8
0
100
AcDbBlockEnd
  0
BLOCK
  5
328
330
327
100
AcDbEntity
  8
0
100
AcDbBlockBegin
  2
*D28
 70
     1
 10
0.0
 20
0.0
 30
0.0
  3
*D28
  1

  0
LINE
  5
32A
330
327
100
AcDbEntity
  8
002
 62
     2
370
     9
100
AcDbLine
 10
168.0
 20
112.5
 30
0.0
 11
119.0
 21
112.5
 31
0.0
  0
LINE
  5
32B
330
327
100
AcDbEntity
  8
002
 62
     2
370
     9
100
AcDbLine
 10
168.0
 20
175.5
 30
0.0
 11
119.0
 21
175.5
 31
0.0
  0
LINE
  5
32C
330
327
100
AcDbEntity
  8
002
 62
     2
370
     9
100
AcDbLine
 10
120.0
 20
112.5
 30
0.0
 11
120.0
 21
175.5
 31
0.0
  0
POLYLINE
  5
32D
330
327
100
AcDbEntity
  8
002
 62
     2
370
     9
100
AcDb2dPolyline
 66
     1
 10
0.0
 20
0.0
 30
0.0
  0
VERTEX
  5
32F
330
32D
100
AcDbEntity
  8
002
 62
     2
370
     9
100
AcDbVertex
100
AcDb2dVertex
 10
120.401924
 20
114.0
 30
0.0
  0
VERTEX
  5
330
330
32D
100
AcDbEntity
  8
002
 62
     2
370
     9
100
AcDbVertex
100
AcDb2dVertex
 10
120.0
 20
112.5
 30
0.0
  0
VERTEX
  5
331
330
32D
100
AcDbEntity
  8
002
 62
     2
370
     9
100
AcDbVertex
100
AcDb2dVertex
 10
119.598076
 20
114.0
 30
0.0
  0
SEQEND
  5
32E
330
32D
100
AcDbEntity
  8
002
 62
     2
370
     9
  0
POLYLINE
  5
332
330
327
100
AcDbEntity
  8
002
 62
     2
370
     9
100
AcDb2dPolyline
 66
     1
 10
0.0
 20
0.0
 30
0.0
  0
VERTEX
  5
334
330
332
100
AcDbEntity
  8
002
 62
     2
370
     9
100
AcDbVertex
100
AcDb2dVertex
 10
119.598076
 20
174.0
 30
0.0
  0
VERTEX
  5
335
330
332
100
AcDbEntity
  8
002
 62
     2
370
     9
100
AcDbVertex
100
AcDb2dVertex
 10
120.0
 20
175.5
 30
0.0
  0
VERTEX
  5
336
330
332
100
AcDbEntity
  8
002
 62
     2
370
     9
100
AcDbVertex
100
AcDb2dVertex
 10
120.401924
 20
174.0
 30
0.0
  0
SEQEND
  5
333
330
332
100
AcDbEntity
  8
002
 62
     2
370
     9
  0
MTEXT
  5
337
330
327
100
AcDbEntity
  8
002
 62
     3
370
     9
100
AcDbMText
 10
117.4
 20
144.0
 30
0.0
 40
3.2
 41
0.0
 71
     5
 72
     1
  1
\W0.882353;%%c６３
 11
-4.371139000186241E-8
 21
0.999999999999999
 31
0.0
 73
     1
 44
1.0
  0
POINT
  5
338
330
327
100
AcDbEntity
  8
002
 62
     2
370
     9
100
AcDbPoint
 10
168.0
 20
112.5
 30
0.0
  0
POINT
  5
339
330
327
100
AcDbEntity
  8
002
 62
     2
370
     9
100
AcDbPoint
 10
168.0
 20
175.5
 30
0.0
  0
POINT
  5
33A
330
327
100
AcDbEntity
  8
002
 62
     2
370
     9
100
AcDbPoint
 10
120.0
 20
175.5
 30
0.0
  0
ENDBLK
  5
329
330
327
100
AcDbEntity
  8
0
100
AcDbBlockEnd
  0
BLOCK
  5
33C
330
33B
100
AcDbEntity
  8
0
100
AcDbBlockBegin
  2
DIM-10
 70
     0
 10
0.0
 20
0.0
 30
0.0
  3
DIM-10
  1

  0
TEXT
  5
33E
330
33B
100
AcDbEntity
  8
002
 62
     3
370
     9
100
AcDbText
 10
103.0
 20
89.0
 30
0.0
 40
4.0
  1
ＨＳＫ６３Ａ
 41
0.833333
100
AcDbText
  0
POLYLINE
  5
33F
330
33B
100
AcDbEntity
  8
002
 62
     2
370
     9
100
AcDb2dPolyline
 66
     1
 10
0.0
 20
0.0
 30
0.0
  0
VERTEX
  5
341
330
33F
100
AcDbEntity
  8
002
 62
     2
370
     9
100
AcDbVertex
100
AcDb2dVertex
 10
142.982278
 20
119.708835
 30
0.0
  0
VERTEX
  5
342
330
33F
100
AcDbEntity
  8
002
 62
     2
370
     9
100
AcDbVertex
100
AcDb2dVertex
 10
144.0
 20
120.881774
 30
0.0
  0
VERTEX
  5
343
330
33F
100
AcDbEntity
  8
002
 62
     2
370
     9
100
AcDbVertex
100
AcDb2dVertex
 10
143.705096
 20
119.357118
 30
0.0
  0
SEQEND
  5
340
330
33F
100
AcDbEntity
  8
002
 62
     2
370
     9
  0
POLYLINE
  5
344
330
33B
100
AcDbEntity
  8
002
 62
     2
370
     9
100
AcDb2dPolyline
 66
     1
 10
0.0
 20
0.0
 30
0.0
  0
VERTEX
  5
346
330
344
100
AcDbEntity
  8
002
 62
     2
370
     9
100
AcDbVertex
100
AcDb2dVertex
 10
144.0
 20
120.881774
 30
0.0
  0
VERTEX
  5
347
330
344
100
AcDbEntity
  8
002
 62
     2
370
     9
100
AcDbVertex
100
AcDb2dVertex
 10
128.0
 20
88.0
 30
0.0
  0
VERTEX
  5
348
330
344
100
AcDbEntity
  8
002
 62
     2
370
     9
100
AcDbVertex
100
AcDb2dVertex
 10
102.0
 20
88.0
 30
0.0
  0
SEQEND
  5
345
330
344
100
AcDbEntity
  8
002
 62
     2
370
     9
  0
ENDBLK
  5
33D
330
33B
100
AcDbEntity
  8
0
100
AcDbBlockEnd
  0
BLOCK
  5
34A
330
349
100
AcDbEntity
  8
0
100
AcDbBlockBegin
  2
*D30
 70
     1
 10
0.0
 20
0.0
 30
0.0
  3
*D30
  1

  0
LINE
  5
34C
330
349
100
AcDbEntity
  8
002
 62
     2
370
     9
100
AcDbLine
 10
178.0
 20
173.005
 30
0.0
 11
178.0
 21
185.0
 31
0.0
  0
LINE
  5
34D
330
349
100
AcDbEntity
  8
002
 62
     2
370
     9
100
AcDbLine
 10
168.0
 20
176.0
 30
0.0
 11
168.0
 21
185.0
 31
0.0
  0
LINE
  5
34E
330
349
100
AcDbEntity
  8
002
 62
     2
370
     9
100
AcDbLine
 10
178.0
 20
184.0
 30
0.0
 11
168.0
 21
184.0
 31
0.0
  0
POLYLINE
  5
34F
330
349
100
AcDbEntity
  8
002
 62
     2
370
     9
100
AcDb2dPolyline
 66
     1
 10
0.0
 20
0.0
 30
0.0
  0
VERTEX
  5
351
330
34F
100
AcDbEntity
  8
002
 62
     2
370
     9
100
AcDbVertex
100
AcDb2dVertex
 10
176.5
 20
184.401924
 30
0.0
  0
VERTEX
  5
352
330
34F
100
AcDbEntity
  8
002
 62
     2
370
     9
100
AcDbVertex
100
AcDb2dVertex
 10
178.0
 20
184.0
 30
0.0
  0
VERTEX
  5
353
330
34F
100
AcDbEntity
  8
002
 62
     2
370
     9
100
AcDbVertex
100
AcDb2dVertex
 10
176.5
 20
183.598076
 30
0.0
  0
SEQEND
  5
350
330
34F
100
AcDbEntity
  8
002
 62
     2
370
     9
  0
POLYLINE
  5
354
330
349
100
AcDbEntity
  8
002
 62
     2
370
     9
100
AcDb2dPolyline
 66
     1
 10
0.0
 20
0.0
 30
0.0
  0
VERTEX
  5
356
330
354
100
AcDbEntity
  8
002
 62
     2
370
     9
100
AcDbVertex
100
AcDb2dVertex
 10
169.5
 20
183.598076
 30
0.0
  0
VERTEX
  5
357
330
354
100
AcDbEntity
  8
002
 62
     2
370
     9
100
AcDbVertex
100
AcDb2dVertex
 10
168.0
 20
184.0
 30
0.0
  0
VERTEX
  5
358
330
354
100
AcDbEntity
  8
002
 62
     2
370
     9
100
AcDbVertex
100
AcDb2dVertex
 10
169.5
 20
184.401924
 30
0.0
  0
SEQEND
  5
355
330
354
100
AcDbEntity
  8
002
 62
     2
370
     9
  0
MTEXT
  5
359
330
349
100
AcDbEntity
  8
002
 62
     3
370
     9
100
AcDbMText
 10
173.0
 20
187.0
 30
0.0
 40
4.0
 41
0.0
 71
     5
 72
     1
  1
\W0.833333;１０
 73
     1
 44
1.0
  0
POINT
  5
35A
330
349
100
AcDbEntity
  8
002
 62
     2
370
     9
100
AcDbPoint
 10
178.0
 20
173.005
 30
0.0
  0
POINT
  5
35B
330
349
100
AcDbEntity
  8
002
 62
     2
370
     9
100
AcDbPoint
 10
168.0
 20
176.0
 30
0.0
  0
POINT
  5
35C
330
349
100
AcDbEntity
  8
002
 62
     2
370
     9
100
AcDbPoint
 10
168.0
 20
184.0
 30
0.0
  0
ENDBLK
  5
34B
330
349
100
AcDbEntity
  8
0
100
AcDbBlockEnd
  0
BLOCK
  5
35E
330
35D
100
AcDbEntity
  8
0
100
AcDbBlockBegin
  2
*D31
 70
     1
 10
0.0
 20
0.0
 30
0.0
  3
*D31
  1

  0
LINE
  5
360
330
35D
100
AcDbEntity
  8
002
 62
     2
370
     9
100
AcDbLine
 10
136.0
 20
121.42396
 30
0.0
 11
136.0
 21
87.0
 31
0.0
  0
LINE
  5
361
330
35D
100
AcDbEntity
  8
002
 62
     2
370
     9
100
AcDbLine
 10
168.0
 20
112.5
 30
0.0
 11
168.0
 21
87.0
 31
0.0
  0
LINE
  5
362
330
35D
100
AcDbEntity
  8
002
 62
     2
370
     9
100
AcDbLine
 10
136.0
 20
88.0
 30
0.0
 11
168.0
 21
88.0
 31
0.0
  0
POLYLINE
  5
363
330
35D
100
AcDbEntity
  8
002
 62
     2
370
     9
100
AcDb2dPolyline
 66
     1
 10
0.0
 20
0.0
 30
0.0
  0
VERTEX
  5
365
330
363
100
AcDbEntity
  8
002
 62
     2
370
     9
100
AcDbVertex
100
AcDb2dVertex
 10
137.5
 20
87.598076
 30
0.0
  0
VERTEX
  5
366
330
363
100
AcDbEntity
  8
002
 62
     2
370
     9
100
AcDbVertex
100
AcDb2dVertex
 10
136.0
 20
88.0
 30
0.0
  0
VERTEX
  5
367
330
363
100
AcDbEntity
  8
002
 62
     2
370
     9
100
AcDbVertex
100
AcDb2dVertex
 10
137.5
 20
88.401924
 30
0.0
  0
SEQEND
  5
364
330
363
100
AcDbEntity
  8
002
 62
     2
370
     9
  0
POLYLINE
  5
368
330
35D
100
AcDbEntity
  8
002
 62
     2
370
     9
100
AcDb2dPolyline
 66
     1
 10
0.0
 20
0.0
 30
0.0
  0
VERTEX
  5
36A
330
368
100
AcDbEntity
  8
002
 62
     2
370
     9
100
AcDbVertex
100
AcDb2dVertex
 10
166.5
 20
88.401924
 30
0.0
  0
VERTEX
  5
36B
330
368
100
AcDbEntity
  8
002
 62
     2
370
     9
100
AcDbVertex
100
AcDb2dVertex
 10
168.0
 20
88.0
 30
0.0
  0
VERTEX
  5
36C
330
368
100
AcDbEntity
  8
002
 62
     2
370
     9
100
AcDbVertex
100
AcDb2dVertex
 10
166.5
 20
87.598076
 30
0.0
  0
SEQEND
  5
369
330
368
100
AcDbEntity
  8
002
 62
     2
370
     9
  0
MTEXT
  5
36D
330
35D
100
AcDbEntity
  8
002
 62
     3
370
     9
100
AcDbMText
 10
152.0
 20
90.6
 30
0.0
 40
3.2
 41
0.0
 71
     5
 72
     1
  1
\W0.833333;３２
 73
     1
 44
1.0
  0
POINT
  5
36E
330
35D
100
AcDbEntity
  8
002
 62
     2
370
     9
100
AcDbPoint
 10
136.0
 20
121.42396
 30
0.0
  0
POINT
  5
36F
330
35D
100
AcDbEntity
  8
002
 62
     2
370
     9
100
AcDbPoint
 10
168.0
 20
112.5
 30
0.0
  0
POINT
  5
370
330
35D
100
AcDbEntity
  8
002
 62
     2
370
     9
100
AcDbPoint
 10
168.0
 20
88.0
 30
0.0
  0
ENDBLK
  5
35F
330
35D
100
AcDbEntity
  8
0
100
AcDbBlockEnd
  0
BLOCK
  5
372
330
371
100
AcDbEntity
  8
0
100
AcDbBlockBegin
  2
*D32
 70
     1
 10
0.0
 20
0.0
 30
0.0
  3
*D32
  1

  0
LINE
  5
374
330
371
100
AcDbEntity
  8
002
 62
     2
370
     9
100
AcDbLine
 10
194.0
 20
112.5
 30
0.0
 11
194.0
 21
95.0
 31
0.0
  0
LINE
  5
375
330
371
100
AcDbEntity
  8
002
 62
     2
370
     9
100
AcDbLine
 10
168.0
 20
112.0
 30
0.0
 11
168.0
 21
95.0
 31
0.0
  0
LINE
  5
376
330
371
100
AcDbEntity
  8
002
 62
     2
370
     9
100
AcDbLine
 10
194.0
 20
96.0
 30
0.0
 11
168.0
 21
96.0
 31
0.0
  0
POLYLINE
  5
377
330
371
100
AcDbEntity
  8
002
 62
     2
370
     9
100
AcDb2dPolyline
 66
     1
 10
0.0
 20
0.0
 30
0.0
  0
VERTEX
  5
379
330
377
100
AcDbEntity
  8
002
 62
     2
370
     9
100
AcDbVertex
100
AcDb2dVertex
 10
192.5
 20
96.401924
 30
0.0
  0
VERTEX
  5
37A
330
377
100
AcDbEntity
  8
002
 62
     2
370
     9
100
AcDbVertex
100
AcDb2dVertex
 10
194.0
 20
96.0
 30
0.0
  0
VERTEX
  5
37B
330
377
100
AcDbEntity
  8
002
 62
     2
370
     9
100
AcDbVertex
100
AcDb2dVertex
 10
192.5
 20
95.598076
 30
0.0
  0
SEQEND
  5
378
330
377
100
AcDbEntity
  8
002
 62
     2
370
     9
  0
POLYLINE
  5
37C
330
371
100
AcDbEntity
  8
002
 62
     2
370
     9
100
AcDb2dPolyline
 66
     1
 10
0.0
 20
0.0
 30
0.0
  0
VERTEX
  5
37E
330
37C
100
AcDbEntity
  8
002
 62
     2
370
     9
100
AcDbVertex
100
AcDb2dVertex
 10
169.5
 20
95.598076
 30
0.0
  0
VERTEX
  5
37F
330
37C
100
AcDbEntity
  8
002
 62
     2
370
     9
100
AcDbVertex
100
AcDb2dVertex
 10
168.0
 20
96.0
 30
0.0
  0
VERTEX
  5
380
330
37C
100
AcDbEntity
  8
002
 62
     2
370
     9
100
AcDbVertex
100
AcDb2dVertex
 10
169.5
 20
96.401924
 30
0.0
  0
SEQEND
  5
37D
330
37C
100
AcDbEntity
  8
002
 62
     2
370
     9
  0
MTEXT
  5
381
330
371
100
AcDbEntity
  8
002
 62
     3
370
     9
100
AcDbMText
 10
181.0
 20
99.0
 30
0.0
 40
4.0
 41
0.0
 71
     5
 72
     1
  1
\W0.833333;２６
 73
     1
 44
1.0
  0
POINT
  5
382
330
371
100
AcDbEntity
  8
002
 62
     2
370
     9
100
AcDbPoint
 10
194.0
 20
112.5
 30
0.0
  0
POINT
  5
383
330
371
100
AcDbEntity
  8
002
 62
     2
370
     9
100
AcDbPoint
 10
168.0
 20
112.0
 30
0.0
  0
POINT
  5
384
330
371
100
AcDbEntity
  8
002
 62
     2
370
     9
100
AcDbPoint
 10
168.0
 20
96.0
 30
0.0
  0
ENDBLK
  5
373
330
371
100
AcDbEntity
  8
0
100
AcDbBlockEnd
  0
BLOCK
  5
386
330
385
100
AcDbEntity
  8
0
100
AcDbBlockBegin
  2
HSK63A-9
 70
     0
 10
0.0
 20
0.0
 30
0.0
  3
HSK63A-9
  1

  0
LINE
  5
388
330
385
100
AcDbEntity
  8
001
 62
     2
370
     9
100
AcDbLine
 10
181.0
 20
152.6
 30
0.0
 11
186.0
 21
152.6
 31
0.0
  0
LINE
  5
389
330
385
100
AcDbEntity
  8
001
 62
    21
370
     9
100
AcDbLine
 10
181.0
 20
153.0
 30
0.0
 11
186.0
 21
153.0
 31
0.0
  0
LINE
  5
38A
330
385
100
AcDbEntity
  8
001
370
     9
100
AcDbLine
 10
178.1
 20
155.0
 30
0.0
 11
180.6
 21
155.0
 31
0.0
  0
LINE
  5
38B
330
385
100
AcDbEntity
  8
001
370
     9
100
AcDbLine
 10
181.0
 20
154.6
 30
0.0
 11
181.0
 21
152.6
 31
0.0
  0
ARC
  5
38C
330
385
100
AcDbEntity
  8
001
370
     9
100
AcDbCircle
 10
180.6
 20
154.6
 30
0.0
 40
0.4
100
AcDbArc
 50
0.0
 51
90.0
  0
LINE
  5
38D
330
385
100
AcDbEntity
  8
001
370
     9
100
AcDbLine
 10
178.1
 20
155.0
 30
0.0
 11
178.0
 21
155.1
 31
0.0
  0
LINE
  5
38E
330
385
100
AcDbEntity
  8
001
370
     9
100
AcDbLine
 10
166.67011
 20
168.040875
 30
0.0
 11
166.0
 21
168.220431
 31
0.0
  0
LINE
  5
38F
330
385
100
AcDbEntity
  8
001
370
     9
100
AcDbLine
 10
167.5
 20
168.020431
 30
0.0
 11
166.825402
 21
168.020431
 31
0.0
  0
ARC
  5
390
330
385
100
AcDbEntity
  8
001
370
     9
100
AcDbCircle
 10
166.825402
 20
168.620431
 30
0.0
 40
0.6
100
AcDbArc
 50
255.0
 51
270.0
  0
ARC
  5
391
330
385
100
AcDbEntity
  8
001
370
     9
100
AcDbCircle
 10
169.0
 20
174.5
 30
0.0
 40
1.0
100
AcDbArc
 50
90.0
 51
180.0
  0
ARC
  5
392
330
385
100
AcDbEntity
  8
001
370
     9
100
AcDbCircle
 10
193.0
 20
174.5
 30
0.0
 40
1.0
100
AcDbArc
 50
0.0
 51
90.0
  0
LINE
  5
393
330
385
100
AcDbEntity
  8
001
370
     9
100
AcDbLine
 10
185.125
 20
171.5
 30
0.0
 11
186.875
 21
171.5
 31
0.0
  0
ARC
  5
394
330
385
100
AcDbEntity
  8
001
370
     9
100
AcDbCircle
 10
185.125
 20
172.5
 30
0.0
 40
1.0
100
AcDbArc
 50
180.0
 51
270.0
  0
ARC
  5
395
330
385
100
AcDbEntity
  8
001
370
     9
100
AcDbCircle
 10
186.875
 20
172.5
 30
0.0
 40
1.0
100
AcDbArc
 50
270.0
 51
0.0
  0
LINE
  5
396
330
385
100
AcDbEntity
  8
001
370
     9
100
AcDbLine
 10
187.875
 20
172.897595
 30
0.0
 11
189.377499
 21
175.5
 31
0.0
  0
LINE
  5
397
330
385
100
AcDbEntity
  8
001
370
     9
100
AcDbLine
 10
184.125
 20
172.897595
 30
0.0
 11
182.622501
 21
175.5
 31
0.0
  0
LINE
  5
398
330
385
100
AcDbEntity
  8
001
370
     9
100
AcDbLine
 10
193.0
 20
175.5
 30
0.0
 11
189.377499
 21
175.5
 31
0.0
  0
LINE
  5
399
330
385
100
AcDbEntity
  8
001
370
     9
100
AcDbLine
 10
182.622501
 20
175.5
 30
0.0
 11
169.0
 21
175.5
 31
0.0
  0
LINE
  5
39A
330
385
100
AcDbEntity
  8
001
370
     9
100
AcDbLine
 10
136.0
 20
165.57604
 30
0.0
 11
136.0
 21
144.0
 31
0.0
  0
LINE
  5
39B
330
385
100
AcDbEntity
  8
001
370
    30
100
AcDbLine
 10
137.139955
 20
166.774537
 30
0.0
 11
166.0
 21
168.220431
 31
0.0
  0
ARC
  5
39C
330
385
100
AcDbEntity
  8
001
370
    30
100
AcDbCircle
 10
137.2
 20
165.57604
 30
0.0
 40
1.2
100
AcDbArc
 50
92.868132
 51
180.0
  0
ARC
  5
39D
330
385
100
AcDbEntity
  8
001
370
    30
100
AcDbCircle
 10
176.4
 20
159.65
 30
0.0
 40
1.6
100
AcDbArc
 50
0.0
 51
122.461745
  0
LINE
  5
39E
330
385
100
AcDbEntity
  8
001
370
    30
100
AcDbLine
 10
137.0
 20
161.0
 30
0.0
 11
136.0
 21
161.57735
 31
0.0
  0
LINE
  5
39F
330
385
100
AcDbEntity
  8
001
370
     9
100
AcDbLine
 10
150.389615
 20
163.4
 30
0.0
 11
149.003975
 21
161.0
 31
0.0
  0
LINE
  5
3A0
330
385
100
AcDbEntity
  8
001
370
     9
100
AcDbLine
 10
161.755002
 20
164.0
 30
0.0
 11
151.428846
 21
164.0
 31
0.0
  0
LINE
  5
3A1
330
385
100
AcDbEntity
  8
001
370
    30
100
AcDbLine
 10
149.003975
 20
161.0
 30
0.0
 11
137.0
 21
161.0
 31
0.0
  0
LINE
  5
3A2
330
385
100
AcDbEntity
  8
001
370
    30
100
AcDbLine
 10
168.0
 20
161.0
 30
0.0
 11
175.541222
 21
161.0
 31
0.0
  0
LINE
  5
3A3
330
385
100
AcDbEntity
  8
001
  6
PHANTOM
 62
     2
370
     9
100
AcDbLine
 10
149.87
 20
161.0
 30
0.0
 11
149.87
 21
164.0
 31
0.0
  0
ARC
  5
3A4
330
385
100
AcDbEntity
  8
001
370
     9
100
AcDbCircle
 10
151.428846
 20
162.8
 30
0.0
 40
1.2
100
AcDbArc
 50
90.0
 51
150.0
  0
LINE
  5
3A5
330
385
100
AcDbEntity
  8
001
 62
     2
370
     9
100
AcDbLine
 10
137.0
 20
161.0
 30
0.0
 11
137.0
 21
158.0
 31
0.0
  0
LINE
  5
3A6
330
385
100
AcDbEntity
  8
001
  6
PHANTOM
 62
     2
370
     9
100
AcDbLine
 10
161.7
 20
144.0
 30
0.0
 11
161.7
 21
168.005
 31
0.0
  0
LINE
  5
3A7
330
385
100
AcDbEntity
  8
001
370
     9
100
AcDbLine
 10
155.25
 20
167.156804
 30
0.0
 11
155.25
 21
164.0
 31
0.0
  0
LINE
  5
3A8
330
385
100
AcDbEntity
  8
001
370
     9
100
AcDbLine
 10
162.75
 20
167.156804
 30
0.0
 11
163.698312
 21
168.105116
 31
0.0
  0
LINE
  5
3A9
330
385
100
AcDbEntity
  8
001
370
     9
100
AcDbLine
 10
155.25
 20
167.156804
 30
0.0
 11
154.75
 21
167.656804
 31
0.0
  0
LINE
  5
3AA
330
385
100
AcDbEntity
  8
001
 62
     2
370
     9
100
AcDbLine
 10
155.25
 20
167.156804
 30
0.0
 11
156.75
 21
167.156804
 31
0.0
  0
LINE
  5
3AB
330
385
100
AcDbEntity
  8
001
 62
     2
370
     9
100
AcDbLine
 10
162.75
 20
167.156804
 30
0.0
 11
161.25
 21
167.156804
 31
0.0
  0
LINE
  5
3AC
330
385
100
AcDbEntity
  8
001
370
     9
100
AcDbLine
 10
162.75
 20
167.156804
 30
0.0
 11
162.75
 21
163.937883
 31
0.0
  0
LINE
  5
3AD
330
385
100
AcDbEntity
  8
001
370
     9
100
AcDbLine
 10
166.67011
 20
119.959125
 30
0.0
 11
166.0
 21
119.779569
 31
0.0
  0
LINE
  5
3AE
330
385
100
AcDbEntity
  8
001
370
     9
100
AcDbLine
 10
167.5
 20
119.979569
 30
0.0
 11
166.825402
 21
119.979569
 31
0.0
  0
ARC
  5
3AF
330
385
100
AcDbEntity
  8
001
370
     9
100
AcDbCircle
 10
166.825402
 20
119.379569
 30
0.0
 40
0.6
100
AcDbArc
 50
90.0
 51
105.0
  0
LINE
  5
3B0
330
385
100
AcDbEntity
  8
001
  6
HIDDEN
 62
     2
370
     9
100
AcDbLine
 10
168.094161
 20
119.296065
 30
0.0
 11
168.0
 21
118.626076
 31
0.0
  0
ARC
  5
3B1
330
385
100
AcDbEntity
  8
001
370
     9
100
AcDbCircle
 10
169.0
 20
113.5
 30
0.0
 40
1.0
100
AcDbArc
 50
180.0
 51
270.0
  0
ARC
  5
3B2
330
385
100
AcDbEntity
  8
001
370
     9
100
AcDbCircle
 10
193.0
 20
113.5
 30
0.0
 40
1.0
100
AcDbArc
 50
270.0
 51
0.0
  0
LINE
  5
3B3
330
385
100
AcDbEntity
  8
001
370
     9
100
AcDbLine
 10
194.0
 20
144.0
 30
0.0
 11
194.0
 21
113.5
 31
0.0
  0
LINE
  5
3B4
330
385
100
AcDbEntity
  8
001
370
     9
100
AcDbLine
 10
186.875
 20
116.5
 30
0.0
 11
185.125
 21
116.5
 31
0.0
  0
ARC
  5
3B5
330
385
100
AcDbEntity
  8
001
370
     9
100
AcDbCircle
 10
185.125
 20
115.5
 30
0.0
 40
1.0
100
AcDbArc
 50
90.0
 51
180.0
  0
ARC
  5
3B6
330
385
100
AcDbEntity
  8
001
370
     9
100
AcDbCircle
 10
186.875
 20
115.5
 30
0.0
 40
1.0
100
AcDbArc
 50
0.0
 51
90.0
  0
LINE
  5
3B7
330
385
100
AcDbEntity
  8
001
370
     9
100
AcDbLine
 10
187.875
 20
115.102405
 30
0.0
 11
189.377499
 21
112.5
 31
0.0
  0
LINE
  5
3B8
330
385
100
AcDbEntity
  8
001
370
     9
100
AcDbLine
 10
184.125
 20
115.102405
 30
0.0
 11
182.622501
 21
112.5
 31
0.0
  0
LINE
  5
3B9
330
385
100
AcDbEntity
  8
001
370
     9
100
AcDbLine
 10
193.0
 20
112.5
 30
0.0
 11
189.377499
 21
112.5
 31
0.0
  0
LINE
  5
3BA
330
385
100
AcDbEntity
  8
001
370
     9
100
AcDbLine
 10
182.622501
 20
112.5
 30
0.0
 11
169.0
 21
112.5
 31
0.0
  0
LINE
  5
3BB
330
385
100
AcDbEntity
  8
001
370
     9
100
AcDbLine
 10
136.0
 20
122.42396
 30
0.0
 11
136.0
 21
144.0
 31
0.0
  0
LINE
  5
3BC
330
385
100
AcDbEntity
  8
001
370
    30
100
AcDbLine
 10
137.139955
 20
121.225463
 30
0.0
 11
166.0
 21
119.779569
 31
0.0
  0
ARC
  5
3BD
330
385
100
AcDbEntity
  8
001
370
    30
100
AcDbCircle
 10
137.2
 20
122.42396
 30
0.0
 40
1.2
100
AcDbArc
 50
180.0
 51
267.131868
  0
LINE
  5
3BE
330
385
100
AcDbEntity
  8
001
  6
CENTER
 62
     2
370
     9
100
AcDbLine
 10
186.0
 20
144.0
 30
0.0
 11
186.0
 21
115.5
 31
0.0
  0
LINE
  5
3BF
330
385
100
AcDbEntity
  8
001
  6
PHANTOM
 62
     2
370
     9
100
AcDbLine
 10
161.7
 20
144.0
 30
0.0
 11
161.7
 21
119.995
 31
0.0
  0
LINE
  5
3C0
330
385
100
AcDbEntity
  8
001
  6
HIDDEN
 62
     2
370
     9
100
AcDbLine
 10
181.0
 20
167.3
 30
0.0
 11
186.0
 21
169.631538
 31
0.0
  0
LINE
  5
3C1
330
385
100
AcDbEntity
  8
001
  6
HIDDEN
 62
     2
370
     9
100
AcDbLine
 10
186.0
 20
169.631538
 30
0.0
 11
186.0
 21
170.5
 31
0.0
  0
LINE
  5
3C2
330
385
100
AcDbEntity
  8
001
  6
HIDDEN
 62
     2
370
     9
100
AcDbLine
 10
186.0
 20
169.631538
 30
0.0
 11
181.0
 21
169.631538
 31
0.0
  0
LINE
  5
3C3
330
385
100
AcDbEntity
  8
001
  6
HIDDEN
 62
     2
370
     9
100
AcDbLine
 10
181.0
 20
167.3
 30
0.0
 11
176.0
 21
169.631538
 31
0.0
  0
LINE
  5
3C4
330
385
100
AcDbEntity
  8
001
  6
HIDDEN
 62
     2
370
     9
100
AcDbLine
 10
176.0
 20
169.631538
 30
0.0
 11
176.0
 21
170.5
 31
0.0
  0
LINE
  5
3C5
330
385
100
AcDbEntity
  8
001
  6
HIDDEN
 62
     2
370
     9
100
AcDbLine
 10
176.0
 20
169.631538
 30
0.0
 11
181.0
 21
169.631538
 31
0.0
  0
LINE
  5
3C6
330
385
100
AcDbEntity
  8
001
  6
HIDDEN
 62
     2
370
     9
100
AcDbLine
 10
173.0
 20
170.5
 30
0.0
 11
173.0
 21
175.5
 31
0.0
  0
LINE
  5
3C7
330
385
100
AcDbEntity
  8
001
  6
HIDDEN
 62
     2
370
     9
100
AcDbLine
 10
173.0
 20
117.5
 30
0.0
 11
173.0
 21
112.5
 31
0.0
  0
LINE
  5
3C8
330
385
100
AcDbEntity
  8
001
370
     9
100
AcDbLine
 10
142.0
 20
161.0
 30
0.0
 11
142.0
 21
167.018026
 31
0.0
  0
ARC
  5
3C9
330
385
100
AcDbEntity
  8
001
370
     9
100
AcDbCircle
 10
161.755002
 20
156.0
 30
0.0
 40
8.0
100
AcDbArc
 50
38.682187
 51
90.0
  0
POLYLINE
  5
3CA
330
385
100
AcDbEntity
  8
001
  6
HIDDEN
 62
     2
370
    30
100
AcDb2dPolyline
 66
     1
 10
0.0
 20
0.0
 30
0.0
  0
VERTEX
  5
3CC
330
3CA
100
AcDbEntity
  8
001
  6
HIDDEN
 62
     2
370
    30
100
AcDbVertex
100
AcDb2dVertex
 10
172.0
 20
172.422662
 30
0.0
  0
VERTEX
  5
3CD
330
3CA
100
AcDbEntity
  8
001
  6
HIDDEN
 62
     2
370
    30
100
AcDbVertex
100
AcDb2dVertex
 10
171.879198
 20
171.713885
 30
0.0
  0
VERTEX
  5
3CE
330
3CA
100
AcDbEntity
  8
001
  6
HIDDEN
 62
     2
370
    30
100
AcDbVertex
100
AcDb2dVertex
 10
171.732256
 20
170.697974
 30
0.0
  0
VERTEX
  5
3CF
330
3CA
100
AcDbEntity
  8
001
  6
HIDDEN
 62
     2
370
    30
100
AcDbVertex
100
AcDb2dVertex
 10
171.458393
 20
168.096759
 30
0.0
  0
VERTEX
  5
3D0
330
3CA
100
AcDbEntity
  8
001
  6
HIDDEN
 62
     2
370
    30
100
AcDbVertex
100
AcDb2dVertex
 10
171.379036
 20
165.836016
 30
0.0
  0
VERTEX
  5
3D1
330
3CA
100
AcDbEntity
  8
001
  6
HIDDEN
 62
     2
370
    30
100
AcDbVertex
100
AcDb2dVertex
 10
171.452265
 20
163.68233
 30
0.0
  0
VERTEX
  5
3D2
330
3CA
100
AcDbEntity
  8
001
  6
HIDDEN
 62
     2
370
    30
100
AcDbVertex
100
AcDb2dVertex
 10
171.636158
 20
161.402288
 30
0.0
  0
VERTEX
  5
3D3
330
3CA
100
AcDbEntity
  8
001
  6
HIDDEN
 62
     2
370
    30
100
AcDbVertex
100
AcDb2dVertex
 10
171.888796
 20
158.762473
 30
0.0
  0
VERTEX
  5
3D4
330
3CA
100
AcDbEntity
  8
001
  6
HIDDEN
 62
     2
370
    30
100
AcDbVertex
100
AcDb2dVertex
 10
171.954073
 20
158.064611
 30
0.0
  0
VERTEX
  5
3D5
330
3CA
100
AcDbEntity
  8
001
  6
HIDDEN
 62
     2
370
    30
100
AcDbVertex
100
AcDb2dVertex
 10
172.0
 20
157.579481
 30
0.0
  0
SEQEND
  5
3CB
330
3CA
100
AcDbEntity
  8
001
  6
HIDDEN
 62
     2
370
    30
  0
LINE
  5
3D6
330
385
100
AcDbEntity
  8
001
  6
HIDDEN
 62
     2
370
    30
100
AcDbLine
 10
178.0
 20
172.422662
 30
0.0
 11
172.0
 21
172.422662
 31
0.0
  0
POLYLINE
  5
3D7
330
385
100
AcDbEntity
  8
001
  6
HIDDEN
 62
     2
370
    30
100
AcDb2dPolyline
 66
     1
 10
0.0
 20
0.0
 30
0.0
  0
VERTEX
  5
3D9
330
3D7
100
AcDbEntity
  8
001
  6
HIDDEN
 62
     2
370
    30
100
AcDbVertex
100
AcDb2dVertex
 10
178.0
 20
157.579481
 30
0.0
  0
VERTEX
  5
3DA
330
3D7
100
AcDbEntity
  8
001
  6
HIDDEN
 62
     2
370
    30
100
AcDbVertex
100
AcDb2dVertex
 10
178.045927
 20
158.064611
 30
0.0
  0
VERTEX
  5
3DB
330
3D7
100
AcDbEntity
  8
001
  6
HIDDEN
 62
     2
370
    30
100
AcDbVertex
100
AcDb2dVertex
 10
178.111204
 20
158.762473
 30
0.0
  0
VERTEX
  5
3DC
330
3D7
100
AcDbEntity
  8
001
  6
HIDDEN
 62
     2
370
    30
100
AcDbVertex
100
AcDb2dVertex
 10
178.363842
 20
161.402288
 30
0.0
  0
VERTEX
  5
3DD
330
3D7
100
AcDbEntity
  8
001
  6
HIDDEN
 62
     2
370
    30
100
AcDbVertex
100
AcDb2dVertex
 10
178.547735
 20
163.68233
 30
0.0
  0
VERTEX
  5
3DE
330
3D7
100
AcDbEntity
  8
001
  6
HIDDEN
 62
     2
370
    30
100
AcDbVertex
100
AcDb2dVertex
 10
178.620964
 20
165.836016
 30
0.0
  0
VERTEX
  5
3DF
330
3D7
100
AcDbEntity
  8
001
  6
HIDDEN
 62
     2
370
    30
100
AcDbVertex
100
AcDb2dVertex
 10
178.541607
 20
168.096759
 30
0.0
  0
VERTEX
  5
3E0
330
3D7
100
AcDbEntity
  8
001
  6
HIDDEN
 62
     2
370
    30
100
AcDbVertex
100
AcDb2dVertex
 10
178.267744
 20
170.697974
 30
0.0
  0
VERTEX
  5
3E1
330
3D7
100
AcDbEntity
  8
001
  6
HIDDEN
 62
     2
370
    30
100
AcDbVertex
100
AcDb2dVertex
 10
178.120802
 20
171.713885
 30
0.0
  0
VERTEX
  5
3E2
330
3D7
100
AcDbEntity
  8
001
  6
HIDDEN
 62
     2
370
    30
100
AcDbVertex
100
AcDb2dVertex
 10
178.0
 20
172.422662
 30
0.0
  0
SEQEND
  5
3D8
330
3D7
100
AcDbEntity
  8
001
  6
HIDDEN
 62
     2
370
    30
  0
LINE
  5
3E3
330
385
100
AcDbEntity
  8
001
  6
HIDDEN
 62
     2
370
    30
100
AcDbLine
 10
172.0
 20
157.579481
 30
0.0
 11
178.0
 21
157.579481
 31
0.0
  0
LINE
  5
3E4
330
385
100
AcDbEntity
  8
001
  6
HIDDEN
 62
     2
370
    30
100
AcDbLine
 10
178.0
 20
159.65
 30
0.0
 11
178.0
 21
172.422662
 31
0.0
  0
LINE
  5
3E5
330
385
100
AcDbEntity
  8
001
  6
HIDDEN
 62
     2
370
    30
100
AcDbLine
 10
172.0
 20
157.579481
 30
0.0
 11
172.0
 21
172.422662
 31
0.0
  0
LINE
  5
3E6
330
385
100
AcDbEntity
  8
001
  6
HIDDEN
 62
     2
370
     9
100
AcDbLine
 10
168.0
 20
127.0
 30
0.0
 11
168.0
 21
132.0
 31
0.0
  0
LINE
  5
3E7
330
385
100
AcDbEntity
  8
001
370
     9
100
AcDbLine
 10
187.875
 20
115.102405
 30
0.0
 11
187.875
 21
144.0
 31
0.0
  0
LINE
  5
3E8
330
385
100
AcDbEntity
  8
001
370
     9
100
AcDbLine
 10
184.125
 20
144.0
 30
0.0
 11
184.125
 21
115.102405
 31
0.0
  0
LINE
  5
3E9
330
385
100
AcDbEntity
  8
001
370
     9
100
AcDbLine
 10
168.0
 20
144.0
 30
0.0
 11
168.0
 21
113.5
 31
0.0
  0
LINE
  5
3EA
330
385
100
AcDbEntity
  8
001
370
    30
100
AcDbLine
 10
189.377499
 20
112.5
 30
0.0
 11
189.377499
 21
144.0
 31
0.0
  0
LINE
  5
3EB
330
385
100
AcDbEntity
  8
001
370
    30
100
AcDbLine
 10
182.622501
 20
112.5
 30
0.0
 11
182.622501
 21
144.0
 31
0.0
  0
LINE
  5
3EC
330
385
100
AcDbEntity
  8
001
 62
     2
370
    30
100
AcDbLine
 10
166.0
 20
119.779569
 30
0.0
 11
166.0
 21
122.779569
 31
0.0
  0
LINE
  5
3ED
330
385
100
AcDbEntity
  8
001
 62
     2
370
    30
100
AcDbLine
 10
166.74641
 20
119.979569
 30
0.0
 11
166.74641
 21
122.979569
 31
0.0
  0
LINE
  5
3EE
330
385
100
AcDbEntity
  8
001
370
     9
100
AcDbLine
 10
187.875
 20
172.5
 30
0.0
 11
187.875
 21
172.897595
 31
0.0
  0
LINE
  5
3EF
330
385
100
AcDbEntity
  8
001
370
     9
100
AcDbLine
 10
184.125
 20
172.5
 30
0.0
 11
184.125
 21
172.897595
 31
0.0
  0
LINE
  5
3F0
330
385
100
AcDbEntity
  8
001
370
    30
100
AcDbLine
 10
178.0
 20
154.9
 30
0.0
 11
178.0
 21
159.65
 31
0.0
  0
LINE
  5
3F1
330
385
100
AcDbEntity
  8
001
370
     9
100
AcDbLine
 10
149.003975
 20
161.0
 30
0.0
 11
149.003975
 21
156.0
 31
0.0
  0
LINE
  5
3F2
330
385
100
AcDbEntity
  8
001
370
     9
100
AcDbLine
 10
150.736025
 20
162.779796
 30
0.0
 11
150.736025
 21
157.779796
 31
0.0
  0
ARC
  5
3F3
330
385
100
AcDbEntity
  8
001
370
     9
100
AcDbCircle
 10
167.5
 20
119.379569
 30
0.0
 40
0.6
100
AcDbArc
 50
33.55731
 51
90.0
  0
ARC
  5
3F4
330
385
100
AcDbEntity
  8
001
  6
HIDDEN
 62
     2
370
     9
100
AcDbCircle
 10
167.5
 20
119.379569
 30
0.0
 40
0.6
100
AcDbArc
 50
352.0
 51
33.55731
  0
LINE
  5
3F5
330
385
100
AcDbEntity
  8
001
370
     9
100
AcDbLine
 10
168.094161
 20
168.703935
 30
0.0
 11
168.0
 21
169.373924
 31
0.0
  0
LINE
  5
3F6
330
385
100
AcDbEntity
  8
001
370
     9
100
AcDbLine
 10
175.541222
 20
161.0
 30
0.0
 11
175.541222
 21
156.0
 31
0.0
  0
LINE
  5
3F7
330
385
100
AcDbEntity
  8
001
  6
HIDDEN
 62
     2
370
     9
100
AcDbLine
 10
173.0
 20
170.5
 30
0.0
 11
194.0
 21
170.5
 31
0.0
  0
LINE
  5
3F8
330
385
100
AcDbEntity
  8
001
  6
HIDDEN
 62
     2
370
     9
100
AcDbLine
 10
173.0
 20
117.5
 30
0.0
 11
194.0
 21
117.5
 31
0.0
  0
LINE
  5
3F9
330
385
100
AcDbEntity
  8
001
370
     9
100
AcDbLine
 10
194.0
 20
163.923886
 30
0.0
 11
194.0
 21
174.5
 31
0.0
  0
LINE
  5
3FA
330
385
100
AcDbEntity
  8
001
370
     9
100
AcDbLine
 10
168.0
 20
169.373924
 30
0.0
 11
168.0
 21
174.5
 31
0.0
  0
ARC
  5
3FB
330
385
100
AcDbEntity
  8
001
370
     9
100
AcDbCircle
 10
167.5
 20
168.620431
 30
0.0
 40
0.6
100
AcDbArc
 50
270.0
 51
8.0
  0
DIMENSION
  5
3FC
330
385
100
AcDbEntity
  8
002
 62
     2
370
     9
100
AcDbDimension
  2
*D27
 10
128.0
 20
168.005
 30
0.0
 11
125.4
 21
144.0
 31
0.0
 70
   160
  1
\W0.896739;%%c４８.０１
 71
     5
 42
-1.0
  3
Standard
100
AcDbAlignedDimension
 13
160.7
 23
119.995
 33
0.0
 14
160.7
 24
168.005
 34
0.0
 50
90.0
100
AcDbRotatedDimension
  0
DIMENSION
  5
3FD
330
385
100
AcDbEntity
  8
002
 62
     2
370
     9
100
AcDbDimension
  2
*D28
 10
120.0
 20
175.5
 30
0.0
 11
117.4
 21
144.0
 31
0.0
 70
   160
  1
\W0.882353;%%c６３
 71
     5
 42
-1.0
  3
Standard
100
AcDbAlignedDimension
 13
168.0
 23
112.5
 33
0.0
 14
168.0
 24
175.5
 34
0.0
 50
90.0
100
AcDbRotatedDimension
  0
INSERT
  5
3FE
330
385
100
AcDbEntity
  8
002
  6
ByBlock
 62
     0
370
    -2
100
AcDbBlockReference
  2
DIM-10
 10
0.0
 20
0.0
 30
0.0
  0
DIMENSION
  5
3FF
330
385
100
AcDbEntity
  8
002
 62
     2
370
     9
100
AcDbDimension
  2
*D30
 10
168.0
 20
184.0
 30
0.0
 11
173.0
 21
187.0
 31
0.0
 70
   160
  1
\W0.833333;１０
 71
     5
 42
-1.0
  3
Standard
100
AcDbAlignedDimension
 13
178.0
 23
173.005
 33
0.0
 14
168.0
 24
176.0
 34
0.0
 50
180.0
100
AcDbRotatedDimension
  0
LINE
  5
400
330
385
100
AcDbEntity
  8
001
  6
CENTER
 62
     2
370
     9
100
AcDbLine
 10
135.0
 20
144.0
 30
0.0
 11
240.1
 21
144.0
 31
0.0
  0
LINE
  5
401
330
385
100
AcDbEntity
  8
001
  6
CENTER
 62
     2
370
     9
100
AcDbLine
 10
186.0
 20
144.0
 30
0.0
 11
186.0
 21
172.5
 31
0.0
  0
LINE
  5
402
330
385
100
AcDbEntity
  8
001
  6
CENTER
 62
     2
370
     9
100
AcDbLine
 10
181.0
 20
166.3
 30
0.0
 11
181.0
 21
171.5
 31
0.0
  0
LINE
  5
403
330
385
100
AcDbEntity
  8
001
  6
CENTER
 62
     2
370
     9
100
AcDbLine
 10
159.0
 20
163.0
 30
0.0
 11
159.0
 21
168.869729
 31
0.0
  0
LINE
  5
404
330
385
100
AcDbEntity
  8
001
370
     9
100
AcDbLine
 10
168.0
 20
161.0
 30
0.0
 11
168.0
 21
150.0
 31
0.0
  0
DIMENSION
  5
405
330
385
100
AcDbEntity
  8
002
 62
     2
370
     9
100
AcDbDimension
  2
*D31
 10
168.0
 20
88.0
 30
0.0
 11
152.0
 21
90.6
 31
0.0
 70
   160
  1
\W0.833333;３２
 71
     5
 42
-1.0
  3
Standard
100
AcDbAlignedDimension
 13
136.0
 23
121.42396
 33
0.0
 14
168.0
 24
112.5
 34
0.0
100
AcDbRotatedDimension
  0
DIMENSION
  5
406
330
385
100
AcDbEntity
  8
002
 62
     2
370
     9
100
AcDbDimension
  2
*D32
 10
168.0
 20
96.0
 30
0.0
 11
181.0
 21
99.0
 31
0.0
 70
   160
  1
\W0.833333;２６
 71
     5
 42
-1.0
  3
Standard
100
AcDbAlignedDimension
 13
194.0
 23
112.5
 33
0.0
 14
168.0
 24
112.0
 34
0.0
 50
180.0
100
AcDbRotatedDimension
  0
ENDBLK
  5
387
330
385
100
AcDbEntity
  8
0
100
AcDbBlockEnd
  0
BLOCK
  5
408
330
407
100
AcDbEntity
  8
0
100
AcDbBlockBegin
  2
*D34
 70
     1
 10
0.0
 20
0.0
 30
0.0
  3
*D34
  1

  0
LINE
  5
40A
330
407
100
AcDbEntity
  8
002
 62
     2
370
     9
100
AcDbLine
 10
186.0
 20
157.7
 30
0.0
 11
186.0
 21
185.0
 31
0.0
  0
LINE
  5
40B
330
407
100
AcDbEntity
  8
002
 62
     2
370
     9
100
AcDbLine
 10
238.0
 20
159.05
 30
0.0
 11
238.0
 21
185.0
 31
0.0
  0
LINE
  5
40C
330
407
100
AcDbEntity
  8
002
 62
     2
370
     9
100
AcDbLine
 10
186.0
 20
184.0
 30
0.0
 11
238.0
 21
184.0
 31
0.0
  0
POLYLINE
  5
40D
330
407
100
AcDbEntity
  8
002
 62
     2
370
     9
100
AcDb2dPolyline
 66
     1
 10
0.0
 20
0.0
 30
0.0
  0
VERTEX
  5
40F
330
40D
100
AcDbEntity
  8
002
 62
     2
370
     9
100
AcDbVertex
100
AcDb2dVertex
 10
187.5
 20
183.598076
 30
0.0
  0
VERTEX
  5
410
330
40D
100
AcDbEntity
  8
002
 62
     2
370
     9
100
AcDbVertex
100
AcDb2dVertex
 10
186.0
 20
184.0
 30
0.0
  0
VERTEX
  5
411
330
40D
100
AcDbEntity
  8
002
 62
     2
370
     9
100
AcDbVertex
100
AcDb2dVertex
 10
187.5
 20
184.401924
 30
0.0
  0
SEQEND
  5
40E
330
40D
100
AcDbEntity
  8
002
 62
     2
370
     9
  0
POLYLINE
  5
412
330
407
100
AcDbEntity
  8
002
 62
     2
370
     9
100
AcDb2dPolyline
 66
     1
 10
0.0
 20
0.0
 30
0.0
  0
VERTEX
  5
414
330
412
100
AcDbEntity
  8
002
 62
     2
370
     9
100
AcDbVertex
100
AcDb2dVertex
 10
236.5
 20
184.401924
 30
0.0
  0
VERTEX
  5
415
330
412
100
AcDbEntity
  8
002
 62
     2
370
     9
100
AcDbVertex
100
AcDb2dVertex
 10
238.0
 20
184.0
 30
0.0
  0
VERTEX
  5
416
330
412
100
AcDbEntity
  8
002
 62
     2
370
     9
100
AcDbVertex
100
AcDb2dVertex
 10
236.5
 20
183.598076
 30
0.0
  0
SEQEND
  5
413
330
412
100
AcDbEntity
  8
002
 62
     2
370
     9
  0
MTEXT
  5
417
330
407
100
AcDbEntity
  8
002
 62
     3
370
     9
100
AcDbMText
 10
212.0
 20
187.0
 30
0.0
 40
4.0
 41
0.0
 71
     5
 72
     1
  1
\W0.833333;５２
 73
     1
 44
1.0
  0
POINT
  5
418
330
407
100
AcDbEntity
  8
002
 62
     2
370
     9
100
AcDbPoint
 10
186.0
 20
157.7
 30
0.0
  0
POINT
  5
419
330
407
100
AcDbEntity
  8
002
 62
     2
370
     9
100
AcDbPoint
 10
238.0
 20
159.05
 30
0.0
  0
POINT
  5
41A
330
407
100
AcDbEntity
  8
002
 62
     2
370
     9
100
AcDbPoint
 10
238.0
 20
184.0
 30
0.0
  0
ENDBLK
  5
409
330
407
100
AcDbEntity
  8
0
100
AcDbBlockEnd
  0
BLOCK
  5
41C
330
41B
100
AcDbEntity
  8
0
100
AcDbBlockBegin
  2
*D35
 70
     1
 10
0.0
 20
0.0
 30
0.0
  3
*D35
  1

  0
LINE
  5
41E
330
41B
100
AcDbEntity
  8
002
 62
     2
370
     9
100
AcDbLine
 10
238.177276
 20
153.525
 30
0.0
 11
249.0
 21
153.525
 31
0.0
  0
LINE
  5
41F
330
41B
100
AcDbEntity
  8
002
 62
     2
370
     9
100
AcDbLine
 10
248.0
 20
134.475
 30
0.0
 11
248.0
 21
153.525
 31
0.0
  0
POLYLINE
  5
420
330
41B
100
AcDbEntity
  8
002
 62
     2
370
     9
100
AcDb2dPolyline
 66
     1
 10
0.0
 20
0.0
 30
0.0
  0
VERTEX
  5
422
330
420
100
AcDbEntity
  8
002
 62
     2
370
     9
100
AcDbVertex
100
AcDb2dVertex
 10
247.598076
 20
152.025
 30
0.0
  0
VERTEX
  5
423
330
420
100
AcDbEntity
  8
002
 62
     2
370
     9
100
AcDbVertex
100
AcDb2dVertex
 10
248.0
 20
153.525
 30
0.0
  0
VERTEX
  5
424
330
420
100
AcDbEntity
  8
002
 62
     2
370
     9
100
AcDbVertex
100
AcDb2dVertex
 10
248.401924
 20
152.025
 30
0.0
  0
SEQEND
  5
421
330
420
100
AcDbEntity
  8
002
 62
     2
370
     9
  0
MTEXT
  5
425
330
41B
100
AcDbEntity
  8
002
 62
     3
370
     9
100
AcDbMText
 10
245.0
 20
142.0
 30
0.0
 40
4.0
 41
0.0
 71
     5
 72
     1
  1
\W0.896739;%%c１９.０５
 11
-4.371139000186241E-8
 21
0.999999999999999
 31
0.0
 73
     1
 44
1.0
  0
POINT
  5
426
330
41B
100
AcDbEntity
  8
002
 62
     2
370
     9
100
AcDbPoint
 10
238.177276
 20
153.525
 30
0.0
  0
POINT
  5
427
330
41B
100
AcDbEntity
  8
002
 62
     2
370
     9
100
AcDbPoint
 10
237.177276
 20
134.475
 30
0.0
  0
POINT
  5
428
330
41B
100
AcDbEntity
  8
002
 62
     2
370
     9
100
AcDbPoint
 10
248.0
 20
153.525
 30
0.0
  0
ENDBLK
  5
41D
330
41B
100
AcDbEntity
  8
0
100
AcDbBlockEnd
  0
BLOCK
  5
42A
330
429
100
AcDbEntity
  8
0
100
AcDbBlockBegin
  2
*D36
 70
     1
 10
0.0
 20
0.0
 30
0.0
  3
*D36
  1

  0
LINE
  5
42C
330
429
100
AcDbEntity
  8
002
 62
     2
370
     9
100
AcDbLine
 10
194.0
 20
112.5
 30
0.0
 11
194.0
 21
95.0
 31
0.0
  0
LINE
  5
42D
330
429
100
AcDbEntity
  8
002
 62
     2
370
     9
100
AcDbLine
 10
238.0
 20
143.0
 30
0.0
 11
238.0
 21
95.0
 31
0.0
  0
LINE
  5
42E
330
429
100
AcDbEntity
  8
002
 62
     2
370
     9
100
AcDbLine
 10
194.0
 20
96.0
 30
0.0
 11
238.0
 21
96.0
 31
0.0
  0
POLYLINE
  5
42F
330
429
100
AcDbEntity
  8
002
 62
     2
370
     9
100
AcDb2dPolyline
 66
     1
 10
0.0
 20
0.0
 30
0.0
  0
VERTEX
  5
431
330
42F
100
AcDbEntity
  8
002
 62
     2
370
     9
100
AcDbVertex
100
AcDb2dVertex
 10
195.5
 20
95.598076
 30
0.0
  0
VERTEX
  5
432
330
42F
100
AcDbEntity
  8
002
 62
     2
370
     9
100
AcDbVertex
100
AcDb2dVertex
 10
194.0
 20
96.0
 30
0.0
  0
VERTEX
  5
433
330
42F
100
AcDbEntity
  8
002
 62
     2
370
     9
100
AcDbVertex
100
AcDb2dVertex
 10
195.5
 20
96.401924
 30
0.0
  0
SEQEND
  5
430
330
42F
100
AcDbEntity
  8
002
 62
     2
370
     9
  0
POLYLINE
  5
434
330
429
100
AcDbEntity
  8
002
 62
     2
370
     9
100
AcDb2dPolyline
 66
     1
 10
0.0
 20
0.0
 30
0.0
  0
VERTEX
  5
436
330
434
100
AcDbEntity
  8
002
 62
     2
370
     9
100
AcDbVertex
100
AcDb2dVertex
 10
236.5
 20
96.401924
 30
0.0
  0
VERTEX
  5
437
330
434
100
AcDbEntity
  8
002
 62
     2
370
     9
100
AcDbVertex
100
AcDb2dVertex
 10
238.0
 20
96.0
 30
0.0
  0
VERTEX
  5
438
330
434
100
AcDbEntity
  8
002
 62
     2
370
     9
100
AcDbVertex
100
AcDb2dVertex
 10
236.5
 20
95.598076
 30
0.0
  0
SEQEND
  5
435
330
434
100
AcDbEntity
  8
002
 62
     2
370
     9
  0
MTEXT
  5
439
330
429
100
AcDbEntity
  8
002
 62
     3
370
     9
100
AcDbMText
 10
216.0
 20
99.0
 30
0.0
 40
4.0
 41
0.0
 71
     5
 72
     1
  1
\W0.833333;４４
 73
     1
 44
1.0
  0
POINT
  5
43A
330
429
100
AcDbEntity
  8
002
 62
     2
370
     9
100
AcDbPoint
 10
194.0
 20
112.5
 30
0.0
  0
POINT
  5
43B
330
429
100
AcDbEntity
  8
002
 62
     2
370
     9
100
AcDbPoint
 10
238.0
 20
143.0
 30
0.0
  0
POINT
  5
43C
330
429
100
AcDbEntity
  8
002
 62
     2
370
     9
100
AcDbPoint
 10
238.0
 20
96.0
 30
0.0
  0
ENDBLK
  5
42B
330
429
100
AcDbEntity
  8
0
100
AcDbBlockEnd
  0
BLOCK
  5
43E
330
43D
100
AcDbEntity
  8
0
100
AcDbBlockBegin
  2
*D37
 70
     1
 10
0.0
 20
0.0
 30
0.0
  3
*D37
  1

  0
LINE
  5
440
330
43D
100
AcDbEntity
  8
002
 62
     2
370
     9
100
AcDbLine
 10
168.0
 20
112.5
 30
0.0
 11
168.0
 21
87.0
 31
0.0
  0
LINE
  5
441
330
43D
100
AcDbEntity
  8
002
 62
     2
370
     9
100
AcDbLine
 10
238.0
 20
143.0
 30
0.0
 11
238.0
 21
87.0
 31
0.0
  0
LINE
  5
442
330
43D
100
AcDbEntity
  8
002
 62
     2
370
     9
100
AcDbLine
 10
168.0
 20
88.0
 30
0.0
 11
238.0
 21
88.0
 31
0.0
  0
POLYLINE
  5
443
330
43D
100
AcDbEntity
  8
002
 62
     2
370
     9
100
AcDb2dPolyline
 66
     1
 10
0.0
 20
0.0
 30
0.0
  0
VERTEX
  5
445
330
443
100
AcDbEntity
  8
002
 62
     2
370
     9
100
AcDbVertex
100
AcDb2dVertex
 10
169.5
 20
87.598076
 30
0.0
  0
VERTEX
  5
446
330
443
100
AcDbEntity
  8
002
 62
     2
370
     9
100
AcDbVertex
100
AcDb2dVertex
 10
168.0
 20
88.0
 30
0.0
  0
VERTEX
  5
447
330
443
100
AcDbEntity
  8
002
 62
     2
370
     9
100
AcDbVertex
100
AcDb2dVertex
 10
169.5
 20
88.401924
 30
0.0
  0
SEQEND
  5
444
330
443
100
AcDbEntity
  8
002
 62
     2
370
     9
  0
POLYLINE
  5
448
330
43D
100
AcDbEntity
  8
002
 62
     2
370
     9
100
AcDb2dPolyline
 66
     1
 10
0.0
 20
0.0
 30
0.0
  0
VERTEX
  5
44A
330
448
100
AcDbEntity
  8
002
 62
     2
370
     9
100
AcDbVertex
100
AcDb2dVertex
 10
236.5
 20
88.401924
 30
0.0
  0
VERTEX
  5
44B
330
448
100
AcDbEntity
  8
002
 62
     2
370
     9
100
AcDbVertex
100
AcDb2dVertex
 10
238.0
 20
88.0
 30
0.0
  0
VERTEX
  5
44C
330
448
100
AcDbEntity
  8
002
 62
     2
370
     9
100
AcDbVertex
100
AcDb2dVertex
 10
236.5
 20
87.598076
 30
0.0
  0
SEQEND
  5
449
330
448
100
AcDbEntity
  8
002
 62
     2
370
     9
  0
MTEXT
  5
44D
330
43D
100
AcDbEntity
  8
002
 62
     3
370
     9
100
AcDbMText
 10
203.0
 20
91.0
 30
0.0
 40
4.0
 41
0.0
 71
     5
 72
     1
  1
\W0.833333;７０
 73
     1
 44
1.0
  0
POINT
  5
44E
330
43D
100
AcDbEntity
  8
002
 62
     2
370
     9
100
AcDbPoint
 10
168.0
 20
112.5
 30
0.0
  0
POINT
  5
44F
330
43D
100
AcDbEntity
  8
002
 62
     2
370
     9
100
AcDbPoint
 10
238.0
 20
143.0
 30
0.0
  0
POINT
  5
450
330
43D
100
AcDbEntity
  8
002
 62
     2
370
     9
100
AcDbPoint
 10
238.0
 20
88.0
 30
0.0
  0
ENDBLK
  5
43F
330
43D
100
AcDbEntity
  8
0
100
AcDbBlockEnd
  0
BLOCK
  5
452
330
451
100
AcDbEntity
  8
0
100
AcDbBlockBegin
  2
DIM-11
 70
     0
 10
0.0
 20
0.0
 30
0.0
  3
DIM-11
  1

  0
TEXT
  5
454
330
451
100
AcDbEntity
  8
002
 62
     3
370
     9
100
AcDbText
 10
79.0
 20
193.0
 30
0.0
 40
4.0
  1
Ｌｕｂｒｉｃａｔｉｏｎ　Ｐｉｐｅ
 41
0.833333
100
AcDbText
  0
POLYLINE
  5
455
330
451
100
AcDbEntity
  8
002
 62
     2
370
     9
100
AcDb2dPolyline
 66
     1
 10
0.0
 20
0.0
 30
0.0
 70
     1
 40
0.5
 41
0.5
  0
VERTEX
  5
457
330
455
100
AcDbEntity
  8
002
 62
     2
370
     9
100
AcDbVertex
100
AcDb2dVertex
 10
160.25
 20
149.0
 30
0.0
 42
1.0
  0
VERTEX
  5
458
330
455
100
AcDbEntity
  8
002
 62
     2
370
     9
100
AcDbVertex
100
AcDb2dVertex
 10
159.75
 20
149.0
 30
0.0
 42
1.0
  0
SEQEND
  5
456
330
455
100
AcDbEntity
  8
002
 62
     2
370
     9
  0
POLYLINE
  5
459
330
451
100
AcDbEntity
  8
002
 62
     2
370
     9
100
AcDb2dPolyline
 66
     1
 10
0.0
 20
0.0
 30
0.0
  0
VERTEX
  5
45B
330
459
100
AcDbEntity
  8
002
 62
     2
370
     9
100
AcDbVertex
100
AcDb2dVertex
 10
160.0
 20
149.0
 30
0.0
  0
VERTEX
  5
45C
330
459
100
AcDbEntity
  8
002
 62
     2
370
     9
100
AcDbVertex
100
AcDb2dVertex
 10
144.0
 20
192.0
 30
0.0
  0
VERTEX
  5
45D
330
459
100
AcDbEntity
  8
002
 62
     2
370
     9
100
AcDbVertex
100
AcDb2dVertex
 10
78.0
 20
192.0
 30
0.0
  0
SEQEND
  5
45A
330
459
100
AcDbEntity
  8
002
 62
     2
370
     9
  0
TEXT
  5
45E
330
451
100
AcDbEntity
  8
002
 62
     3
370
     9
100
AcDbText
 10
79.0
 20
199.0
 30
0.0
 40
4.0
  1
Ｓｐｅｃｉａｌ
 41
0.833333
100
AcDbText
  0
POLYLINE
  5
45F
330
451
100
AcDbEntity
  8
002
 62
     2
370
     9
100
AcDb2dPolyline
 66
     1
 10
0.0
 20
0.0
 30
0.0
  0
VERTEX
  5
461
330
45F
100
AcDbEntity
  8
002
 62
     2
370
     9
100
AcDbVertex
100
AcDb2dVertex
 10
144.0
 20
192.0
 30
0.0
  0
VERTEX
  5
462
330
45F
100
AcDbEntity
  8
002
 62
     2
370
     9
100
AcDbVertex
100
AcDb2dVertex
 10
144.0
 20
198.0
 30
0.0
  0
VERTEX
  5
463
330
45F
100
AcDbEntity
  8
002
 62
     2
370
     9
100
AcDbVertex
100
AcDb2dVertex
 10
78.0
 20
198.0
 30
0.0
  0
SEQEND
  5
460
330
45F
100
AcDbEntity
  8
002
 62
     2
370
     9
  0
ENDBLK
  5
453
330
451
100
AcDbEntity
  8
0
100
AcDbBlockEnd
  0
BLOCK
  5
465
330
464
100
AcDbEntity
  8
0
100
AcDbBlockBegin
  2
DIM-12
 70
     0
 10
0.0
 20
0.0
 30
0.0
  3
DIM-12
  1

  0
TEXT
  5
467
330
464
100
AcDbEntity
  8
002
 62
     3
370
     9
100
AcDbText
 10
201.0
 20
193.0
 30
0.0
 40
4.0
  1
Ｐ１０（ＪＩＳ）
 41
0.833333
100
AcDbText
  0
POLYLINE
  5
468
330
464
100
AcDbEntity
  8
002
 62
     2
370
     9
100
AcDb2dPolyline
 66
     1
 10
0.0
 20
0.0
 30
0.0
 70
     1
 40
0.5
 41
0.5
  0
VERTEX
  5
46A
330
468
100
AcDbEntity
  8
002
 62
     2
370
     9
100
AcDbVertex
100
AcDb2dVertex
 10
185.6
 20
149.799494
 30
0.0
 42
1.0
  0
VERTEX
  5
46B
330
468
100
AcDbEntity
  8
002
 62
     2
370
     9
100
AcDbVertex
100
AcDb2dVertex
 10
185.1
 20
149.799494
 30
0.0
 42
1.0
  0
SEQEND
  5
469
330
468
100
AcDbEntity
  8
002
 62
     2
370
     9
  0
POLYLINE
  5
46C
330
464
100
AcDbEntity
  8
002
 62
     2
370
     9
100
AcDb2dPolyline
 66
     1
 10
0.0
 20
0.0
 30
0.0
  0
VERTEX
  5
46E
330
46C
100
AcDbEntity
  8
002
 62
     2
370
     9
100
AcDbVertex
100
AcDb2dVertex
 10
185.35
 20
149.799494
 30
0.0
  0
VERTEX
  5
46F
330
46C
100
AcDbEntity
  8
002
 62
     2
370
     9
100
AcDbVertex
100
AcDb2dVertex
 10
200.0
 20
192.0
 30
0.0
  0
VERTEX
  5
470
330
46C
100
AcDbEntity
  8
002
 62
     2
370
     9
100
AcDbVertex
100
AcDb2dVertex
 10
234.0
 20
192.0
 30
0.0
  0
SEQEND
  5
46D
330
46C
100
AcDbEntity
  8
002
 62
     2
370
     9
  0
TEXT
  5
471
330
464
100
AcDbEntity
  8
002
 62
     3
370
     9
100
AcDbText
 10
201.0
 20
199.0
 30
0.0
 40
4.0
  1
Ｏ－Ｒｉｎｇ
 41
0.833333
100
AcDbText
  0
POLYLINE
  5
472
330
464
100
AcDbEntity
  8
002
 62
     2
370
     9
100
AcDb2dPolyline
 66
     1
 10
0.0
 20
0.0
 30
0.0
  0
VERTEX
  5
474
330
472
100
AcDbEntity
  8
002
 62
     2
370
     9
100
AcDbVertex
100
AcDb2dVertex
 10
200.0
 20
192.0
 30
0.0
  0
VERTEX
  5
475
330
472
100
AcDbEntity
  8
002
 62
     2
370
     9
100
AcDbVertex
100
AcDb2dVertex
 10
200.0
 20
198.0
 30
0.0
  0
VERTEX
  5
476
330
472
100
AcDbEntity
  8
002
 62
     2
370
     9
100
AcDbVertex
100
AcDb2dVertex
 10
234.0
 20
198.0
 30
0.0
  0
SEQEND
  5
473
330
472
100
AcDbEntity
  8
002
 62
     2
370
     9
  0
ENDBLK
  5
466
330
464
100
AcDbEntity
  8
0
100
AcDbBlockEnd
  0
ENDSEC
  0
SECTION
  2
ENTITIES
  0
INSERT
  5
477
330
1F
100
AcDbEntity
  8
003
  6
ByBlock
 62
     0
370
    -2
100
AcDbBlockReference
  2
JZB-1
 10
0.0
 20
0.0
 30
0.0
  0
INSERT
  5
478
330
1F
100
AcDbEntity
  8
001
  6
ByBlock
 62
     0
370
    -2
100
AcDbBlockReference
  2
C20-2B-2
 10
0.0
 20
0.0
 30
0.0
  0
INSERT
  5
479
330
1F
100
AcDbEntity
  8
001
  6
ByBlock
 62
     0
370
    -2
100
AcDbBlockReference
  2
JZB-3
 10
0.0
 20
0.0
 30
0.0
  0
INSERT
  5
47A
330
1F
100
AcDbEntity
  8
001
  6
ByBlock
 62
     0
370
    -2
100
AcDbBlockReference
  2
HSK63-LPS-4
 10
0.0
 20
0.0
 30
0.0
  0
INSERT
  5
47B
330
1F
100
AcDbEntity
  8
001
  6
ByBlock
 62
     0
370
    -2
100
AcDbBlockReference
  2
9C22-BD-5
 10
0.0
 20
0.0
 30
0.0
  0
INSERT
  5
47C
330
1F
100
AcDbEntity
  8
001
  6
ByBlock
 62
     0
370
    -2
100
AcDbBlockReference
  2
JZB-6
 10
0.0
 20
0.0
 30
0.0
  0
INSERT
  5
47D
330
1F
100
AcDbEntity
  8
001
  6
ByBlock
 62
     0
370
    -2
100
AcDbBlockReference
  2
HSK63A-7
 10
0.0
 20
0.0
 30
0.0
  0
INSERT
  5
47E
330
1F
100
AcDbEntity
  8
002
  6
ByBlock
 62
     0
370
    -2
100
AcDbBlockReference
  2
HSK63A-8
 10
0.0
 20
0.0
 30
0.0
  0
INSERT
  5
47F
330
1F
100
AcDbEntity
  8
001
  6
ByBlock
 62
     0
370
    -2
100
AcDbBlockReference
  2
HSK63A-9
 10
0.0
 20
0.0
 30
0.0
  0
DIMENSION
  5
480
330
1F
100
AcDbEntity
  8
002
 62
     2
370
     9
100
AcDbDimension
  2
*D34
 10
238.0
 20
184.0
 30
0.0
 11
212.0
 21
187.0
 31
0.0
 70
   160
  1
\W0.833333;５２
 71
     5
 42
-1.0
  3
Standard
100
AcDbAlignedDimension
 13
186.0
 23
157.7
 33
0.0
 14
238.0
 24
159.05
 34
0.0
100
AcDbRotatedDimension
  0
DIMENSION
  5
481
330
1F
100
AcDbEntity
  8
002
 62
     2
370
     9
100
AcDbDimension
  2
*D35
 10
248.0
 20
153.525
 30
0.0
 11
245.0
 21
142.0
 31
0.0
 70
   160
  1
\W0.896739;%%c１９.０５
 71
     5
 42
-1.0
  3
Standard
100
AcDbAlignedDimension
 13
238.177276
 23
153.525
 33
0.0
 14
237.177276
 24
134.475
 34
0.0
 50
90.0
100
AcDbRotatedDimension
  0
DIMENSION
  5
482
330
1F
100
AcDbEntity
  8
002
 62
     2
370
     9
100
AcDbDimension
  2
*D36
 10
238.0
 20
96.0
 30
0.0
 11
216.0
 21
99.0
 31
0.0
 70
   160
  1
\W0.833333;４４
 71
     5
 42
-1.0
  3
Standard
100
AcDbAlignedDimension
 13
194.0
 23
112.5
 33
0.0
 14
238.0
 24
143.0
 34
0.0
100
AcDbRotatedDimension
  0
DIMENSION
  5
483
330
1F
100
AcDbEntity
  8
002
 62
     2
370
     9
100
AcDbDimension
  2
*D37
 10
238.0
 20
88.0
 30
0.0
 11
203.0
 21
91.0
 31
0.0
 70
   160
  1
\W0.833333;７０
 71
     5
 42
-1.0
  3
Standard
100
AcDbAlignedDimension
 13
168.0
 23
112.5
 33
0.0
 14
238.0
 24
143.0
 34
0.0
100
AcDbRotatedDimension
  0
INSERT
  5
484
330
1F
100
AcDbEntity
  8
002
  6
ByBlock
 62
     0
370
    -2
100
AcDbBlockReference
  2
DIM-11
 10
0.0
 20
0.0
 30
0.0
  0
INSERT
  5
485
330
1F
100
AcDbEntity
  8
002
  6
ByBlock
 62
     0
370
    -2
100
AcDbBlockReference
  2
DIM-12
 10
0.0
 20
0.0
 30
0.0
  0
LINE
  5
486
330
1F
100
AcDbEntity
  8
020
370
    30
100
AcDbLine
 10
405.386665
 20
4.954249
 30
0.0
 11
13.386665
 21
4.954249
 31
0.0
  0
LINE
  5
487
330
1F
100
AcDbEntity
  8
020
370
    30
100
AcDbLine
 10
405.386665
 20
282.454249
 30
0.0
 11
405.386665
 21
4.954249
 31
0.0
  0
LINE
  5
488
330
1F
100
AcDbEntity
  8
020
370
    30
100
AcDbLine
 10
405.386665
 20
282.454249
 30
0.0
 11
13.386665
 21
282.454249
 31
0.0
  0
LINE
  5
489
330
1F
100
AcDbEntity
  8
020
370
    30
100
AcDbLine
 10
13.386665
 20
282.454249
 30
0.0
 11
13.386665
 21
4.954249
 31
0.0
  0
LINE
  5
48A
330
1F
100
AcDbEntity
  8
020
370
    30
100
AcDbLine
 10
334.886665
 20
10.454249
 30
0.0
 11
334.886665
 21
4.954249
 31
0.0
  0
LINE
  5
48B
330
1F
100
AcDbEntity
  8
020
370
    30
100
AcDbLine
 10
361.386665
 20
15.954249
 30
0.0
 11
361.386665
 21
4.954249
 31
0.0
  0
LINE
  5
48C
330
1F
100
AcDbEntity
  8
020
370
    30
100
AcDbLine
 10
405.386665
 20
10.454249
 30
0.0
 11
334.886665
 21
10.454249
 31
0.0
  0
LINE
  5
48D
330
1F
100
AcDbEntity
  8
020
370
    30
100
AcDbLine
 10
269.886665
 20
10.454249
 30
0.0
 11
228.886665
 21
10.454249
 31
0.0
  0
LINE
  5
48E
330
1F
100
AcDbEntity
  8
020
370
    30
100
AcDbLine
 10
405.386665
 20
15.954249
 30
0.0
 11
228.886665
 21
15.954249
 31
0.0
  0
LINE
  5
48F
330
1F
100
AcDbEntity
  8
020
370
    30
100
AcDbLine
 10
243.886665
 20
15.954249
 30
0.0
 11
243.886665
 21
4.954249
 31
0.0
  0
LINE
  5
490
330
1F
100
AcDbEntity
  8
020
370
    30
100
AcDbLine
 10
286.486665
 20
12.754249
 30
0.0
 11
286.486665
 21
8.154249
 31
0.0
  0
LINE
  5
491
330
1F
100
AcDbEntity
  8
020
370
    30
100
AcDbLine
 10
286.486665
 20
9.954249
 30
0.0
 11
288.286665
 21
12.754249
 31
0.0
  0
LINE
  5
492
330
1F
100
AcDbEntity
  8
020
370
    30
100
AcDbLine
 10
288.286665
 20
8.154249
 30
0.0
 11
287.103665
 21
10.914249
 31
0.0
  0
LINE
  5
493
330
1F
100
AcDbEntity
  8
020
370
    30
100
AcDbLine
 10
288.886665
 20
11.854249
 30
0.0
 11
288.886665
 21
9.054249
 31
0.0
  0
ARC
  5
494
330
1F
100
AcDbEntity
  8
020
370
    30
100
AcDbCircle
 10
289.786665
 20
9.054249
 30
0.0
 40
0.9000019999999722
100
AcDbArc
 50
180.0
 51
0.0
  0
ARC
  5
495
330
1F
100
AcDbEntity
  8
020
370
    30
100
AcDbCircle
 10
289.786665
 20
11.854249
 30
0.0
 40
0.9000019999999722
100
AcDbArc
 50
0.0
 51
180.0
  0
LINE
  5
496
330
1F
100
AcDbEntity
  8
020
370
    30
100
AcDbLine
 10
290.686665
 20
11.854249
 30
0.0
 11
290.686665
 21
9.054249
 31
0.0
  0
ARC
  5
497
330
1F
100
AcDbEntity
  8
020
370
    30
100
AcDbCircle
 10
292.186665
 20
9.054249
 30
0.0
 40
0.8999999999999913
100
AcDbArc
 50
180.0
 51
327.953
  0
ARC
  5
498
330
1F
100
AcDbEntity
  8
020
370
    30
100
AcDbCircle
 10
292.186665
 20
11.854249
 30
0.0
 40
0.8999999999999946
100
AcDbArc
 50
0.0
 51
256.271
  0
ARC
  5
499
330
1F
100
AcDbEntity
  8
020
370
    30
100
AcDbCircle
 10
291.593665
 20
9.425679
 30
0.0
 40
1.600000000000003
100
AcDbArc
 50
327.953
 51
76.271
  0
LINE
  5
49A
330
1F
100
AcDbEntity
  8
020
370
    30
100
AcDbLine
 10
293.686665
 20
8.154249
 30
0.0
 11
294.586665
 21
12.754249
 31
0.0
  0
LINE
  5
49B
330
1F
100
AcDbEntity
  8
020
370
    30
100
AcDbLine
 10
294.586665
 20
12.754249
 30
0.0
 11
295.486665
 21
8.154249
 31
0.0
  0
LINE
  5
49C
330
1F
100
AcDbEntity
  8
020
370
    30
100
AcDbLine
 10
295.134665
 20
9.954249
 30
0.0
 11
294.038665
 21
9.954249
 31
0.0
  0
LINE
  5
49D
330
1F
100
AcDbEntity
  8
020
370
    30
100
AcDbLine
 10
296.086665
 20
12.754249
 30
0.0
 11
296.086665
 21
8.154249
 31
0.0
  0
LINE
  5
49E
330
1F
100
AcDbEntity
  8
020
370
    30
100
AcDbLine
 10
296.086665
 20
9.954249
 30
0.0
 11
297.886665
 21
12.754249
 31
0.0
  0
LINE
  5
49F
330
1F
100
AcDbEntity
  8
020
370
    30
100
AcDbLine
 10
297.886665
 20
8.154249
 30
0.0
 11
296.703665
 21
10.914249
 31
0.0
  0
LINE
  5
4A0
330
1F
100
AcDbEntity
  8
020
370
    30
100
AcDbLine
 10
298.486665
 20
12.754249
 30
0.0
 11
298.486665
 21
9.054249
 31
0.0
  0
LINE
  5
4A1
330
1F
100
AcDbEntity
  8
020
370
    30
100
AcDbLine
 10
300.286665
 20
12.754249
 30
0.0
 11
300.286665
 21
9.054249
 31
0.0
  0
ARC
  5
4A2
330
1F
100
AcDbEntity
  8
020
370
    30
100
AcDbCircle
 10
299.386665
 20
9.054249
 30
0.0
 40
0.9000019999999722
100
AcDbArc
 50
180.0
 51
0.0
  0
LINE
  5
4A3
330
1F
100
AcDbEntity
  8
020
370
    30
100
AcDbLine
 10
303.286665
 20
12.754249
 30
0.0
 11
303.286665
 21
8.154249
 31
0.0
  0
LINE
  5
4A4
330
1F
100
AcDbEntity
  8
020
370
    30
100
AcDbLine
 10
305.086665
 20
12.754249
 30
0.0
 11
305.086665
 21
8.154249
 31
0.0
  0
LINE
  5
4A5
330
1F
100
AcDbEntity
  8
020
370
    30
100
AcDbLine
 10
303.286665
 20
10.554249
 30
0.0
 11
305.086665
 21
10.554249
 31
0.0
  0
LINE
  5
4A6
330
1F
100
AcDbEntity
  8
020
370
    30
100
AcDbLine
 10
305.686665
 20
11.854249
 30
0.0
 11
305.686665
 21
9.054249
 31
0.0
  0
ARC
  5
4A7
330
1F
100
AcDbEntity
  8
020
370
    30
100
AcDbCircle
 10
306.586665
 20
9.054249
 30
0.0
 40
0.9000019999999722
100
AcDbArc
 50
180.0
 51
0.0
  0
ARC
  5
4A8
330
1F
100
AcDbEntity
  8
020
370
    30
100
AcDbCircle
 10
306.586665
 20
11.854249
 30
0.0
 40
0.9000019999999722
100
AcDbArc
 50
0.0
 51
180.0
  0
LINE
  5
4A9
330
1F
100
AcDbEntity
  8
020
370
    30
100
AcDbLine
 10
307.486665
 20
11.854249
 30
0.0
 11
307.486665
 21
9.054249
 31
0.0
  0
ARC
  5
4AA
330
1F
100
AcDbEntity
  8
020
370
    30
100
AcDbCircle
 10
301.786665
 20
9.054249
 30
0.0
 40
0.8999999999999913
100
AcDbArc
 50
180.0
 51
327.953
  0
ARC
  5
4AB
330
1F
100
AcDbEntity
  8
020
370
    30
100
AcDbCircle
 10
301.786665
 20
11.854249
 30
0.0
 40
0.8999999999999946
100
AcDbArc
 50
0.0
 51
256.271
  0
ARC
  5
4AC
330
1F
100
AcDbEntity
  8
020
370
    30
100
AcDbCircle
 10
301.193665
 20
9.425679
 30
0.0
 40
1.600000000000003
100
AcDbArc
 50
327.953
 51
76.271
  0
LINE
  5
4AD
330
1F
100
AcDbEntity
  8
020
370
    30
100
AcDbLine
 10
332.686665
 20
8.154249
 30
0.0
 11
332.886665
 21
8.154249
 31
0.0
  0
LINE
  5
4AE
330
1F
100
AcDbEntity
  8
020
370
    30
100
AcDbLine
 10
332.686665
 20
8.354249
 30
0.0
 11
332.686665
 21
8.154249
 31
0.0
  0
LINE
  5
4AF
330
1F
100
AcDbEntity
  8
020
370
    30
100
AcDbLine
 10
332.886665
 20
8.354249
 30
0.0
 11
332.686665
 21
8.354249
 31
0.0
  0
LINE
  5
4B0
330
1F
100
AcDbEntity
  8
020
370
    30
100
AcDbLine
 10
332.886665
 20
8.154249
 30
0.0
 11
332.886665
 21
8.354249
 31
0.0
  0
LINE
  5
4B1
330
1F
100
AcDbEntity
  8
020
370
    30
100
AcDbLine
 10
324.286665
 20
12.754249
 30
0.0
 11
324.286665
 21
8.154249
 31
0.0
  0
LINE
  5
4B2
330
1F
100
AcDbEntity
  8
020
370
    30
100
AcDbLine
 10
324.286665
 20
8.154249
 30
0.0
 11
326.286665
 21
8.154249
 31
0.0
  0
LINE
  5
4B3
330
1F
100
AcDbEntity
  8
020
370
    30
100
AcDbLine
 10
327.786665
 20
8.154249
 30
0.0
 11
327.786665
 21
12.754249
 31
0.0
  0
LINE
  5
4B4
330
1F
100
AcDbEntity
  8
020
370
    30
100
AcDbLine
 10
326.886665
 20
12.754249
 30
0.0
 11
328.686665
 21
12.754249
 31
0.0
  0
LINE
  5
4B5
330
1F
100
AcDbEntity
  8
020
370
    30
100
AcDbLine
 10
329.286665
 20
12.754249
 30
0.0
 11
329.286665
 21
8.154249
 31
0.0
  0
ARC
  5
4B6
330
1F
100
AcDbEntity
  8
020
370
    30
100
AcDbCircle
 10
329.886665
 20
11.554249
 30
0.0
 40
1.199999999999999
100
AcDbArc
 50
0.0
 51
90.0
  0
ARC
  5
4B7
330
1F
100
AcDbEntity
  8
020
370
    30
100
AcDbCircle
 10
329.886665
 20
9.354249
 30
0.0
 40
1.199999999999989
100
AcDbArc
 50
270.0
 51
0.0
  0
LINE
  5
4B8
330
1F
100
AcDbEntity
  8
020
370
    30
100
AcDbLine
 10
329.286665
 20
8.154249
 30
0.0
 11
329.886665
 21
8.154249
 31
0.0
  0
LINE
  5
4B9
330
1F
100
AcDbEntity
  8
020
370
    30
100
AcDbLine
 10
329.286665
 20
12.754249
 30
0.0
 11
329.886665
 21
12.754249
 31
0.0
  0
LINE
  5
4BA
330
1F
100
AcDbEntity
  8
020
370
    30
100
AcDbLine
 10
331.086665
 20
11.554249
 30
0.0
 11
331.086665
 21
9.354249
 31
0.0
  0
LINE
  5
4BB
330
1F
100
AcDbEntity
  8
020
370
    30
100
AcDbLine
 10
271.686665
 20
8.154249
 30
0.0
 11
271.686665
 21
12.754249
 31
0.0
  0
LINE
  5
4BC
330
1F
100
AcDbEntity
  8
020
370
    30
100
AcDbLine
 10
271.686665
 20
12.754249
 30
0.0
 11
271.786665
 21
12.754249
 31
0.0
  0
LINE
  5
4BD
330
1F
100
AcDbEntity
  8
020
370
    30
100
AcDbLine
 10
271.786665
 20
12.754249
 30
0.0
 11
273.386665
 21
8.154249
 31
0.0
  0
LINE
  5
4BE
330
1F
100
AcDbEntity
  8
020
370
    30
100
AcDbLine
 10
273.386665
 20
8.154249
 30
0.0
 11
273.486665
 21
8.154249
 31
0.0
  0
LINE
  5
4BF
330
1F
100
AcDbEntity
  8
020
370
    30
100
AcDbLine
 10
273.486665
 20
8.154249
 30
0.0
 11
273.486665
 21
12.754249
 31
0.0
  0
LINE
  5
4C0
330
1F
100
AcDbEntity
  8
020
370
    30
100
AcDbLine
 10
274.486665
 20
8.154249
 30
0.0
 11
274.486665
 21
12.754249
 31
0.0
  0
LINE
  5
4C1
330
1F
100
AcDbEntity
  8
020
370
    30
100
AcDbLine
 10
275.486665
 20
12.754249
 30
0.0
 11
275.486665
 21
8.154249
 31
0.0
  0
LINE
  5
4C2
330
1F
100
AcDbEntity
  8
020
370
    30
100
AcDbLine
 10
275.486665
 20
9.954249
 30
0.0
 11
277.286665
 21
12.754249
 31
0.0
  0
LINE
  5
4C3
330
1F
100
AcDbEntity
  8
020
370
    30
100
AcDbLine
 10
277.286665
 20
8.154249
 30
0.0
 11
276.103665
 21
10.914249
 31
0.0
  0
LINE
  5
4C4
330
1F
100
AcDbEntity
  8
020
370
    30
100
AcDbLine
 10
277.886665
 20
12.754249
 30
0.0
 11
277.886665
 21
8.154249
 31
0.0
  0
LINE
  5
4C5
330
1F
100
AcDbEntity
  8
020
370
    30
100
AcDbLine
 10
277.886665
 20
9.954249
 30
0.0
 11
279.686665
 21
12.754249
 31
0.0
  0
LINE
  5
4C6
330
1F
100
AcDbEntity
  8
020
370
    30
100
AcDbLine
 10
279.686665
 20
8.154249
 30
0.0
 11
278.503665
 21
10.914249
 31
0.0
  0
LINE
  5
4C7
330
1F
100
AcDbEntity
  8
020
370
    30
100
AcDbLine
 10
280.286665
 20
12.754249
 30
0.0
 11
282.086665
 21
12.754249
 31
0.0
  0
LINE
  5
4C8
330
1F
100
AcDbEntity
  8
020
370
    30
100
AcDbLine
 10
280.286665
 20
10.754249
 30
0.0
 11
281.486665
 21
10.754249
 31
0.0
  0
LINE
  5
4C9
330
1F
100
AcDbEntity
  8
020
370
    30
100
AcDbLine
 10
280.286665
 20
8.154249
 30
0.0
 11
282.086665
 21
8.154249
 31
0.0
  0
LINE
  5
4CA
330
1F
100
AcDbEntity
  8
020
370
    30
100
AcDbLine
 10
280.286665
 20
12.754249
 30
0.0
 11
280.286665
 21
8.154249
 31
0.0
  0
LINE
  5
4CB
330
1F
100
AcDbEntity
  8
020
370
    30
100
AcDbLine
 10
282.686665
 20
8.154249
 30
0.0
 11
282.686665
 21
12.754249
 31
0.0
  0
LINE
  5
4CC
330
1F
100
AcDbEntity
  8
020
370
    30
100
AcDbLine
 10
282.686665
 20
12.754249
 30
0.0
 11
282.786665
 21
12.754249
 31
0.0
  0
LINE
  5
4CD
330
1F
100
AcDbEntity
  8
020
370
    30
100
AcDbLine
 10
282.786665
 20
12.754249
 30
0.0
 11
284.386665
 21
8.154249
 31
0.0
  0
LINE
  5
4CE
330
1F
100
AcDbEntity
  8
020
370
    30
100
AcDbLine
 10
284.386665
 20
8.154249
 30
0.0
 11
284.486665
 21
8.154249
 31
0.0
  0
LINE
  5
4CF
330
1F
100
AcDbEntity
  8
020
370
    30
100
AcDbLine
 10
284.486665
 20
8.154249
 30
0.0
 11
284.486665
 21
12.754249
 31
0.0
  0
LINE
  5
4D0
330
1F
100
AcDbEntity
  8
020
370
    30
100
AcDbLine
 10
322.286665
 20
8.154249
 30
0.0
 11
322.286665
 21
7.354319
 31
0.0
  0
LINE
  5
4D1
330
1F
100
AcDbEntity
  8
020
370
    30
100
AcDbLine
 10
322.286665
 20
7.354249
 30
0.0
 11
322.086665
 21
7.154249
 31
0.0
  0
LINE
  5
4D2
330
1F
100
AcDbEntity
  8
020
370
    30
100
AcDbLine
 10
322.286665
 20
8.354249
 30
0.0
 11
322.086665
 21
8.354249
 31
0.0
  0
LINE
  5
4D3
330
1F
100
AcDbEntity
  8
020
370
    30
100
AcDbLine
 10
322.086665
 20
8.154249
 30
0.0
 11
322.286665
 21
8.154249
 31
0.0
  0
LINE
  5
4D4
330
1F
100
AcDbEntity
  8
020
370
    30
100
AcDbLine
 10
322.086665
 20
8.354249
 30
0.0
 11
322.086665
 21
8.154249
 31
0.0
  0
LINE
  5
4D5
330
1F
100
AcDbEntity
  8
020
370
    30
100
AcDbLine
 10
322.286665
 20
8.154249
 30
0.0
 11
322.286665
 21
8.354249
 31
0.0
  0
ARC
  5
4D6
330
1F
100
AcDbEntity
  8
020
370
    30
100
AcDbCircle
 10
320.186665
 20
9.054249
 30
0.0
 40
0.8999999999999913
100
AcDbArc
 50
180.0
 51
327.953
  0
ARC
  5
4D7
330
1F
100
AcDbEntity
  8
020
370
    30
100
AcDbCircle
 10
320.186665
 20
11.854249
 30
0.0
 40
0.8999999999999946
100
AcDbArc
 50
0.0
 51
256.271
  0
ARC
  5
4D8
330
1F
100
AcDbEntity
  8
020
370
    30
100
AcDbCircle
 10
319.593665
 20
9.425679
 30
0.0
 40
1.600000000000003
100
AcDbArc
 50
327.953
 51
76.271
  0
LINE
  5
4D9
330
1F
100
AcDbEntity
  8
020
370
    30
100
AcDbLine
 10
309.486665
 20
12.754249
 30
0.0
 11
309.886665
 21
8.154249
 31
0.0
  0
LINE
  5
4DA
330
1F
100
AcDbEntity
  8
020
370
    30
100
AcDbLine
 10
309.886665
 20
8.154249
 30
0.0
 11
310.086665
 21
8.154249
 31
0.0
  0
LINE
  5
4DB
330
1F
100
AcDbEntity
  8
020
370
    30
100
AcDbLine
 10
310.086665
 20
8.154249
 30
0.0
 11
310.486665
 21
12.754249
 31
0.0
  0
LINE
  5
4DC
330
1F
100
AcDbEntity
  8
020
370
    30
100
AcDbLine
 10
310.486665
 20
12.754249
 30
0.0
 11
310.686665
 21
12.754249
 31
0.0
  0
LINE
  5
4DD
330
1F
100
AcDbEntity
  8
020
370
    30
100
AcDbLine
 10
310.686665
 20
12.754249
 30
0.0
 11
311.086665
 21
8.154249
 31
0.0
  0
LINE
  5
4DE
330
1F
100
AcDbEntity
  8
020
370
    30
100
AcDbLine
 10
311.086665
 20
8.154249
 30
0.0
 11
311.286665
 21
8.154249
 31
0.0
  0
LINE
  5
4DF
330
1F
100
AcDbEntity
  8
020
370
    30
100
AcDbLine
 10
311.286665
 20
8.154249
 30
0.0
 11
311.686665
 21
12.754249
 31
0.0
  0
LINE
  5
4E0
330
1F
100
AcDbEntity
  8
020
370
    30
100
AcDbLine
 10
312.486665
 20
11.854249
 30
0.0
 11
312.486665
 21
9.054249
 31
0.0
  0
ARC
  5
4E1
330
1F
100
AcDbEntity
  8
020
370
    30
100
AcDbCircle
 10
313.386665
 20
9.054249
 30
0.0
 40
0.9000019999999722
100
AcDbArc
 50
180.0
 51
0.0
  0
ARC
  5
4E2
330
1F
100
AcDbEntity
  8
020
370
    30
100
AcDbCircle
 10
313.386665
 20
11.854249
 30
0.0
 40
0.9000019999999722
100
AcDbArc
 50
0.0
 51
180.0
  0
LINE
  5
4E3
330
1F
100
AcDbEntity
  8
020
370
    30
100
AcDbLine
 10
314.286665
 20
11.854249
 30
0.0
 11
314.286665
 21
9.054249
 31
0.0
  0
LINE
  5
4E4
330
1F
100
AcDbEntity
  8
020
370
    30
100
AcDbLine
 10
314.886665
 20
12.754249
 30
0.0
 11
314.886665
 21
8.154249
 31
0.0
  0
LINE
  5
4E5
330
1F
100
AcDbEntity
  8
020
370
    30
100
AcDbLine
 10
314.886665
 20
12.754249
 30
0.0
 11
315.486665
 21
12.754249
 31
0.0
  0
LINE
  5
4E6
330
1F
100
AcDbEntity
  8
020
370
    30
100
AcDbLine
 10
314.886665
 20
10.354249
 30
0.0
 11
315.886665
 21
10.354249
 31
0.0
  0
ARC
  5
4E7
330
1F
100
AcDbEntity
  8
020
370
    30
100
AcDbCircle
 10
315.486665
 20
11.554249
 30
0.0
 40
1.199929999999999
100
AcDbArc
 50
269.99
 51
90.01
  0
LINE
  5
4E8
330
1F
100
AcDbEntity
  8
020
370
    30
100
AcDbLine
 10
316.686665
 20
8.154249
 30
0.0
 11
316.486665
 21
9.754249
 31
0.0
  0
ARC
  5
4E9
330
1F
100
AcDbEntity
  8
020
370
    30
100
AcDbCircle
 10
315.886665
 20
9.754249
 30
0.0
 40
0.5999999999999996
100
AcDbArc
 50
0.0
 51
90.0
  0
LINE
  5
4EA
330
1F
100
AcDbEntity
  8
020
370
    30
100
AcDbLine
 10
317.286665
 20
12.754249
 30
0.0
 11
317.286665
 21
8.154249
 31
0.0
  0
LINE
  5
4EB
330
1F
100
AcDbEntity
  8
020
370
    30
100
AcDbLine
 10
317.286665
 20
9.954249
 30
0.0
 11
319.086665
 21
12.754249
 31
0.0
  0
LINE
  5
4EC
330
1F
100
AcDbEntity
  8
020
370
    30
100
AcDbLine
 10
319.086665
 20
8.154249
 30
0.0
 11
317.903665
 21
10.914249
 31
0.0
  0
LINE
  5
4ED
330
1F
100
AcDbEntity
  8
020
370
    30
100
AcDbLine
 10
405.386665
 20
22.704249
 30
0.0
 11
334.886665
 21
22.704249
 31
0.0
  0
LINE
  5
4EE
330
1F
100
AcDbEntity
  8
020
370
    30
100
AcDbLine
 10
228.886665
 20
23.849017
 30
0.0
 11
228.886665
 21
4.954249
 31
0.0
  0
LINE
  5
4EF
330
1F
100
AcDbEntity
  8
020
370
    30
100
AcDbLine
 10
228.886665
 20
42.954249
 30
0.0
 11
228.886665
 21
16.954249
 31
0.0
  0
LINE
  5
4F0
330
1F
100
AcDbEntity
  8
020
370
    30
100
AcDbLine
 10
405.386665
 20
42.954249
 30
0.0
 11
228.886665
 21
42.954249
 31
0.0
  0
LINE
  5
4F1
330
1F
100
AcDbEntity
  8
020
370
    30
100
AcDbLine
 10
358.386665
 20
29.454249
 30
0.0
 11
358.386665
 21
15.954249
 31
0.0
  0
LINE
  5
4F2
330
1F
100
AcDbEntity
  8
020
370
    30
100
AcDbLine
 10
381.886665
 20
42.954249
 30
0.0
 11
381.886665
 21
15.954249
 31
0.0
  0
LINE
  5
4F3
330
1F
100
AcDbEntity
  8
020
370
    30
100
AcDbLine
 10
269.886665
 20
42.954249
 30
0.0
 11
269.886665
 21
4.954249
 31
0.0
  0
LINE
  5
4F4
330
1F
100
AcDbEntity
  8
020
370
    30
100
AcDbLine
 10
405.386665
 20
29.454249
 30
0.0
 11
228.886665
 21
29.454249
 31
0.0
  0
CIRCLE
  5
4F5
330
1F
100
AcDbEntity
  8
020
370
    30
100
AcDbCircle
 10
387.287665
 20
36.275949
 30
0.0
 40
3.600000000000023
  0
CIRCLE
  5
4F6
330
1F
100
AcDbEntity
  8
020
370
    30
100
AcDbCircle
 10
387.287665
 20
36.275949
 30
0.0
 40
2.399999999999977
  0
LINE
  5
4F7
330
1F
100
AcDbEntity
  8
020
  6
CENTER
 62
     2
370
    30
100
AcDbLine
 10
391.287665
 20
36.275949
 30
0.0
 11
383.287665
 21
36.275949
 31
0.0
  0
LINE
  5
4F8
330
1F
100
AcDbEntity
  8
020
  6
CENTER
 62
     2
370
    30
100
AcDbLine
 10
387.287665
 20
40.275949
 30
0.0
 11
387.287665
 21
32.275949
 31
0.0
  0
LINE
  5
4F9
330
1F
100
AcDbEntity
  8
020
370
    30
100
AcDbLine
 10
394.087665
 20
33.875949
 30
0.0
 11
402.887665
 21
32.675949
 31
0.0
  0
LINE
  5
4FA
330
1F
100
AcDbEntity
  8
020
370
    30
100
AcDbLine
 10
394.087665
 20
38.675949
 30
0.0
 11
394.087665
 21
33.875949
 31
0.0
  0
LINE
  5
4FB
330
1F
100
AcDbEntity
  8
020
  6
CENTER
 62
     2
370
    30
100
AcDbLine
 10
393.287665
 20
36.275949
 30
0.0
 11
403.687665
 21
36.275949
 31
0.0
  0
LINE
  5
4FC
330
1F
100
AcDbEntity
  8
020
370
    30
100
AcDbLine
 10
394.087665
 20
38.675949
 30
0.0
 11
402.887665
 21
39.875949
 31
0.0
  0
LINE
  5
4FD
330
1F
100
AcDbEntity
  8
020
370
    30
100
AcDbLine
 10
402.887665
 20
39.875949
 30
0.0
 11
402.887665
 21
32.675949
 31
0.0
  0
LINE
  5
4FE
330
1F
100
AcDbEntity
  8
020
370
    30
100
AcDbLine
 10
228.886665
 20
42.954249
 30
0.0
 11
228.886665
 21
10.954249
 31
0.0
  0
TEXT
  5
4FF
330
1F
100
AcDbEntity
  8
020
 62
     2
370
    30
100
AcDbText
 10
335.886665
 20
11.954249
 30
0.0
 40
2.5
  1
ＤＩＲ－ＮＡＭＥ
 41
0.833333
100
AcDbText
  0
TEXT
  5
500
330
1F
100
AcDbEntity
  8
020
 62
     2
370
    30
100
AcDbText
 10
335.886665
 20
6.454249
 30
0.0
 40
2.5
  1
ＤＲＷＧ　ＮＯ．
 41
0.833333
100
AcDbText
  0
TEXT
  5
501
330
1F
100
AcDbEntity
  8
020
 62
     2
370
    30
100
AcDbText
 10
335.886665
 20
24.829249
 30
0.0
 40
2.5
  1
ＤＥＳＩＧＮＥＤ
 41
0.833333
100
AcDbText
  0
TEXT
  5
502
330
1F
100
AcDbEntity
  8
020
 62
     2
370
    30
100
AcDbText
 10
359.386665
 20
24.829249
 30
0.0
 40
2.5
  1
ＣＨＥＣＫＥＤ
 41
0.833333
100
AcDbText
  0
TEXT
  5
503
330
1F
100
AcDbEntity
  8
020
 62
     2
370
    30
100
AcDbText
 10
382.886665
 20
24.829249
 30
0.0
 40
2.5
  1
ＡＰＰＲＯＶＥＤ
 41
0.833333
100
AcDbText
  0
TEXT
  5
504
330
1F
100
AcDbEntity
  8
020
 62
     2
370
    30
100
AcDbText
 10
335.886665
 20
39.454249
 30
0.0
 40
2.5
  1
ＣＵＳＴＯＭＥＲ
 41
0.833333
100
AcDbText
  0
TEXT
  5
505
330
1F
100
AcDbEntity
  8
020
 62
     2
370
    30
100
AcDbText
 10
270.886665
 20
25.954249
 30
0.0
 40
2.5
  1
ＣＯＤＥ　ＮＯ．
 41
0.833333
100
AcDbText
  0
TEXT
  5
506
330
1F
100
AcDbEntity
  8
020
 62
     2
370
    30
100
AcDbText
 10
270.886665
 20
39.454249
 30
0.0
 40
2.5
  1
ＴＩＴＬＥ
 41
0.833333
100
AcDbText
  0
TEXT
  5
507
330
1F
100
AcDbEntity
  8
020
 62
     2
370
    30
100
AcDbText
 10
229.886665
 20
39.454249
 30
0.0
 40
2.5
  1
ＫＩＮＤ
 41
0.833333
100
AcDbText
  0
TEXT
  5
508
330
1F
100
AcDbEntity
  8
020
 62
     2
370
    30
100
AcDbText
 10
229.886665
 20
25.954249
 30
0.0
 40
2.5
  1
ＭＡＣＨＩＮＥ　ＭＯＤＥＬ
 41
0.833333
100
AcDbText
  0
TEXT
  5
509
330
1F
100
AcDbEntity
  8
020
 62
     2
370
    30
100
AcDbText
 10
229.886665
 20
11.954249
 30
0.0
 40
2.5
  1
ＳＣＡＬＥ
 41
0.833333
100
AcDbText
  0
TEXT
  5
50A
330
1F
100
AcDbEntity
  8
020
 62
     2
370
    30
100
AcDbText
 10
229.886665
 20
6.454249
 30
0.0
 40
2.5
  1
ＤＡＴＥ
 41
0.833333
100
AcDbText
  0
LINE
  5
50B
330
1F
100
AcDbEntity
  8
020
370
     9
100
AcDbLine
 10
211.386665
 20
282.454249
 30
0.0
 11
211.386665
 21
276.454249
 31
0.0
  0
LINE
  5
50C
330
1F
100
AcDbEntity
  8
020
370
     9
100
AcDbLine
 10
405.386665
 20
276.454249
 30
0.0
 11
211.386665
 21
276.454249
 31
0.0
  0
TEXT
  5
50D
330
1F
100
AcDbEntity
  8
020
 62
     3
370
     9
100
AcDbText
 10
212.386665
 20
277.454249
 30
0.0
 40
4.0
  1
ＮＩＫＫＥＮ　ＫＯＳＡＫＵＳＨＯ　ＷＯＲＫＳ．，
 41
0.833333
100
AcDbText
  0
TEXT
  5
50E
330
1F
100
AcDbEntity
  8
020
 62
     3
370
     9
100
AcDbText
 10
308.386665
 20
277.454249
 30
0.0
 40
4.0
  1
ＬＴＤ．Ａｌｌ　Ｒｉｇｈｔｓ　Ｒｅｓｅｒｖｅｄ．
 41
0.833333
100
AcDbText
  0
LINE
  5
50F
330
1F
100
AcDbEntity
  8
020
370
    30
100
AcDbLine
 10
334.886665
 20
42.954249
 30
0.0
 11
334.886665
 21
10.454249
 31
0.0
  0
ENDSEC
  0
SECTION
  2
OBJECTS
  0
DICTIONARY
  5
C
330
0
100
AcDbDictionary
281
     1
  3
ACAD_GROUP
350
D
  3
ACAD_LAYOUT
350
1A
  3
ACAD_MATERIAL
350
3B
  3
ACAD_MLEADERSTYLE
350
512
  3
ACAD_MLINESTYLE
350
17
  3
ACAD_PLOTSETTINGS
350
19
  3
ACAD_PLOTSTYLENAME
350
E
  3
ACAD_VISUALSTYLE
350
2A
  3
AcDbVariableDictionary
350
510
  0
DICTIONARY
  5
D
102
{ACAD_REACTORS
330
C
102
}
330
C
100
AcDbDictionary
281
     1
  0
DICTIONARY
  5
1A
102
{ACAD_REACTORS
330
C
102
}
330
C
100
AcDbDictionary
281
     1
  3
Layout1
350
1E
  3
Layout2
350
26
  3
Model
350
22
  0
DICTIONARY
  5
3B
102
{ACAD_REACTORS
330
C
102
}
330
C
100
AcDbDictionary
281
     1
  3
ByBlock
350
3D
  3
ByLayer
350
3C
  3
Global
350
3E
  0
DICTIONARY
  5
512
102
{ACAD_REACTORS
330
C
102
}
330
C
100
AcDbDictionary
281
     1
  0
DICTIONARY
  5
17
102
{ACAD_REACTORS
330
C
102
}
330
C
100
AcDbDictionary
281
     1
  3
Standard
350
18
  0
DICTIONARY
  5
19
102
{ACAD_REACTORS
330
C
102
}
330
C
100
AcDbDictionary
281
     1
  0
ACDBDICTIONARYWDFLT
  5
E
102
{ACAD_REACTORS
330
C
102
}
330
C
100
AcDbDictionary
281
     1
  3
Normal
350
F
100
AcDbDictionaryWithDefault
340
F
  0
DICTIONARY
  5
2A
102
{ACAD_REACTORS
330
C
102
}
330
C
100
AcDbDictionary
281
     1
  3
2dWireframe
350
2F
  3
3D Hidden
350
31
  3
3dWireframe
350
30
  3
Basic
350
32
  3
Brighten
350
36
  3
ColorChange
350
3A
  3
Conceptual
350
34
  3
Dim
350
35
  3
Facepattern
350
39
  3
Flat
350
2B
  3
FlatWithEdges
350
2C
  3
Gouraud
350
2D
  3
GouraudWithEdges
350
2E
  3
Linepattern
350
38
  3
Realistic
350
33
  3
Thicken
350
37
  0
DICTIONARY
  5
510
102
{ACAD_REACTORS
330
C
102
}
330
C
100
AcDbDictionary
281
     1
  3
DIMASSOC
350
515
  3
HIDETEXT
350
516
  3
PSOLHEIGHT
350
514
  3
PSOLWIDTH
350
513
  0
LAYOUT
  5
1E
102
{ACAD_REACTORS
330
1A
102
}
330
1A
100
AcDbPlotSettings
  1

  2
none_device
  4

  6

 40
0.0
 41
0.0
 42
0.0
 43
0.0
 44
0.0
 45
0.0
 46
0.0
 47
0.0
 48
0.0
 49
0.0
140
0.0
141
0.0
142
1.0
143
1.0
 70
   688
 72
     0
 73
     0
 74
     5
  7

 75
    16
147
1.0
148
0.0
149
0.0
100
AcDbLayout
  1
Layout1
 70
     1
 71
     1
 10
0.0
 20
0.0
 11
12.0
 21
9.0
 12
0.0
 22
0.0
 32
0.0
 14
1.000000E+20
 24
1.000000E+20
 34
0.0
 15
-1.000000E+20
 25
-1.000000E+20
 35
0.0
146
0.0
 13
0.0
 23
0.0
 33
0.0
 16
1.0
 26
0.0
 36
0.0
 17
0.0
 27
1.0
 37
0.0
 76
     0
330
1B
  0
LAYOUT
  5
26
102
{ACAD_REACTORS
330
1A
102
}
330
1A
100
AcDbPlotSettings
  1

  2
none_device
  4

  6

 40
0.0
 41
0.0
 42
0.0
 43
0.0
 44
0.0
 45
0.0
 46
0.0
 47
0.0
 48
0.0
 49
0.0
140
0.0
141
0.0
142
1.0
143
1.0
 70
   688
 72
     0
 73
     0
 74
     5
  7

 75
    16
147
1.0
148
0.0
149
0.0
100
AcDbLayout
  1
Layout2
 70
     1
 71
     2
 10
0.0
 20
0.0
 11
0.0
 21
0.0
 12
0.0
 22
0.0
 32
0.0
 14
0.0
 24
0.0
 34
0.0
 15
0.0
 25
0.0
 35
0.0
146
0.0
 13
0.0
 23
0.0
 33
0.0
 16
1.0
 26
0.0
 36
0.0
 17
0.0
 27
1.0
 37
0.0
 76
     0
330
23
  0
LAYOUT
  5
22
102
{ACAD_REACTORS
330
1A
102
}
330
1A
100
AcDbPlotSettings
  1

  2
none_device
  4

  6

 40
0.0
 41
0.0
 42
0.0
 43
0.0
 44
0.0
 45
0.0
 46
0.0
 47
0.0
 48
0.0
 49
0.0
140
0.0
141
0.0
142
1.0
143
1.0
 70
  1712
 72
     0
 73
     0
 74
     0
  7

 75
     0
147
1.0
148
0.0
149
0.0
100
AcDbLayout
  1
Model
 70
     1
 71
     0
 10
0.0
 20
0.0
 11
12.0
 21
9.0
 12
0.0
 22
0.0
 32
0.0
 14
-0.613342
 24
-4.795746
 34
0.0
 15
419.386658
 25
292.204254
 35
0.0
146
0.0
 13
0.0
 23
0.0
 33
0.0
 16
1.0
 26
0.0
 36
0.0
 17
0.0
 27
1.0
 37
0.0
 76
     0
330
1F
331
29
  0
MATERIAL
  5
3D
102
{ACAD_REACTORS
330
3B
102
}
102
{ACAD_XDICTIONARY
360
539
102
}
330
3B
100
AcDbMaterial
  1
ByBlock
  0
MATERIAL
  5
3C
102
{ACAD_REACTORS
330
3B
102
}
102
{ACAD_XDICTIONARY
360
537
102
}
330
3B
100
AcDbMaterial
  1
ByLayer
  0
MATERIAL
  5
3E
102
{ACAD_REACTORS
330
3B
102
}
102
{ACAD_XDICTIONARY
360
53B
102
}
330
3B
100
AcDbMaterial
  1
Global
  0
MLINESTYLE
  5
18
102
{ACAD_REACTORS
330
17
102
}
330
17
100
AcDbMlineStyle
  2
Standard
 70
     0
  3

 62
   256
 51
90.0
 52
90.0
 71
     2
 49
0.5
 62
   256
  6
BYLAYER
 49
-0.5
 62
   256
  6
BYLAYER
  0
ACDBPLACEHOLDER
  5
F
102
{ACAD_REACTORS
330
E
102
}
330
E
  0
VISUALSTYLE
  5
2F
102
{ACAD_REACTORS
330
2A
102
}
102
{ACAD_XDICTIONARY
360
51F
102
}
330
2A
100
AcDbVisualStyle
  2
2dWireframe
 70
     4
 71
     0
 72
     2
 73
     0
 90
        0
 40
-0.6
 41
-30.0
 62
     5
 63
     7
 74
     1
 91
        4
 64
     7
 65
   257
 75
     1
175
     1
 42
1.0
 92
        0
 66
   257
 43
1.0
 76
     1
 77
     6
 78
     2
 67
     7
 79
     5
170
     0
171
     0
290
     0
174
     0
 93
        1
 44
0.0
173
     0
291
     0
 45
0.0
1001
ACAD
1000
AcDbSavedByObjectVersion
1070
     0
  0
VISUALSTYLE
  5
31
102
{ACAD_REACTORS
330
2A
102
}
102
{ACAD_XDICTIONARY
360
523
102
}
330
2A
100
AcDbVisualStyle
  2
3D Hidden
 70
     6
 71
     1
 72
     2
 73
     2
 90
        0
 40
-0.6
 41
-30.0
 62
     5
 63
     7
 74
     2
 91
        2
 64
     7
 65
   257
 75
     2
175
     1
 42
40.0
 92
        0
 66
   257
 43
1.0
 76
     1
 77
     6
 78
     2
 67
     7
 79
     3
170
     0
171
     0
290
     0
174
     0
 93
        1
 44
0.0
173
     0
291
     0
 45
0.0
1001
ACAD
1000
AcDbSavedByObjectVersion
1070
     0
  0
VISUALSTYLE
  5
30
102
{ACAD_REACTORS
330
2A
102
}
102
{ACAD_XDICTIONARY
360
521
102
}
330
2A
100
AcDbVisualStyle
  2
3dWireframe
 70
     5
 71
     0
 72
     2
 73
     0
 90
        0
 40
-0.6
 41
-30.0
 62
     5
 63
     7
 74
     1
 91
        4
 64
     7
 65
   257
 75
     1
175
     1
 42
1.0
 92
        0
 66
   257
 43
1.0
 76
     1
 77
     6
 78
     2
 67
     7
 79
     5
170
     0
171
     0
290
     0
174
     0
 93
        1
 44
0.0
173
     0
291
     0
 45
0.0
1001
ACAD
1000
AcDbSavedByObjectVersion
1070
     0
  0
VISUALSTYLE
  5
32
102
{ACAD_REACTORS
330
2A
102
}
102
{ACAD_XDICTIONARY
360
525
102
}
330
2A
100
AcDbVisualStyle
  2
Basic
 70
     7
 71
     1
 72
     0
 73
     1
 90
        0
 40
-0.6
 41
-30.0
 62
     5
 63
     7
 74
     0
 91
        4
 64
     7
 65
   257
 75
     1
175
     1
 42
1.0
 92
        8
 66
     7
 43
1.0
 76
     1
 77
     6
 78
     2
 67
     7
 79
     5
170
     0
171
     0
290
     0
174
     0
 93
        1
 44
0.0
173
     0
291
     1
 45
0.0
1001
ACAD
1000
AcDbSavedByObjectVersion
1070
     0
  0
VISUALSTYLE
  5
36
102
{ACAD_REACTORS
330
2A
102
}
102
{ACAD_XDICTIONARY
360
52D
102
}
330
2A
100
AcDbVisualStyle
  2
Brighten
 70
    12
 71
     2
 72
     2
 73
     0
 90
        0
 40
-0.6
 41
-30.0
 62
     5
 63
     7
 74
     1
 91
        4
 64
     7
 65
   257
 75
     1
175
     1
 42
1.0
 92
        8
 66
     7
 43
1.0
 76
     1
 77
     6
 78
     2
 67
     7
 79
     5
170
     0
171
     0
290
     0
174
     0
 93
        1
 44
50.0
173
     0
291
     1
 45
0.0
1001
ACAD
1000
AcDbSavedByObjectVersion
1070
     0
  0
VISUALSTYLE
  5
3A
102
{ACAD_REACTORS
330
2A
102
}
102
{ACAD_XDICTIONARY
360
535
102
}
330
2A
100
AcDbVisualStyle
  2
ColorChange
 70
    16
 71
     2
 72
     2
 73
     3
 90
        0
 40
-0.6
 41
-30.0
 62
     5
 63
     8
 74
     1
 91
        4
 64
     7
 65
   257
 75
     1
175
     1
 42
1.0
 92
        8
 66
     8
 43
1.0
 76
     1
 77
     6
 78
     2
 67
     7
 79
     5
170
     0
171
     0
290
     0
174
     0
 93
        1
 44
0.0
173
     0
291
     1
 45
0.0
1001
ACAD
1000
AcDbSavedByObjectVersion
1070
     0
  0
VISUALSTYLE
  5
34
102
{ACAD_REACTORS
330
2A
102
}
102
{ACAD_XDICTIONARY
360
529
102
}
330
2A
100
AcDbVisualStyle
  2
Conceptual
 70
     9
 71
     3
 72
     2
 73
     0
 90
        0
 40
-0.6
 41
-30.0
 62
     5
 63
     7
 74
     2
 91
        2
 64
     7
 65
   257
 75
     1
175
     1
 42
40.0
 92
        8
 66
     7
 43
1.0
 76
     1
 77
     6
 78
     2
 67
     7
 79
     3
170
     0
171
     0
290
     0
174
     0
 93
        1
 44
0.0
173
     0
291
     0
 45
0.0
1001
ACAD
1000
AcDbSavedByObjectVersion
1070
     0
  0
VISUALSTYLE
  5
35
102
{ACAD_REACTORS
330
2A
102
}
102
{ACAD_XDICTIONARY
360
52B
102
}
330
2A
100
AcDbVisualStyle
  2
Dim
 70
    11
 71
     2
 72
     2
 73
     0
 90
        0
 40
-0.6
 41
-30.0
 62
     5
 63
     7
 74
     1
 91
        4
 64
     7
 65
   257
 75
     1
175
     1
 42
1.0
 92
        8
 66
     7
 43
1.0
 76
     1
 77
     6
 78
     2
 67
     7
 79
     5
170
     0
171
     0
290
     0
174
     0
 93
        1
 44
-50.0
173
     0
291
     1
 45
0.0
1001
ACAD
1000
AcDbSavedByObjectVersion
1070
     0
  0
VISUALSTYLE
  5
39
102
{ACAD_REACTORS
330
2A
102
}
102
{ACAD_XDICTIONARY
360
533
102
}
330
2A
100
AcDbVisualStyle
  2
Facepattern
 70
    15
 71
     2
 72
     2
 73
     0
 90
        0
 40
-0.6
 41
-30.0
 62
     5
 63
     7
 74
     1
 91
        4
 64
     7
 65
   257
 75
     1
175
     1
 42
1.0
 92
        8
 66
     7
 43
1.0
 76
     1
 77
     6
 78
     2
 67
     7
 79
     5
170
     0
171
     0
290
     0
174
     0
 93
        1
 44
0.0
173
     0
291
     1
 45
0.0
1001
ACAD
1000
AcDbSavedByObjectVersion
1070
     0
  0
VISUALSTYLE
  5
2B
102
{ACAD_REACTORS
330
2A
102
}
102
{ACAD_XDICTIONARY
360
517
102
}
330
2A
100
AcDbVisualStyle
  2
Flat
 70
     0
 71
     2
 72
     1
 73
     1
 90
        2
 40
-0.6
 41
30.0
 62
     5
 63
     7
 74
     0
 91
        4
 64
     7
 65
   257
 75
     1
175
     1
 42
1.0
 92
        8
 66
     7
 43
1.0
 76
     1
 77
     6
 78
     2
 67
     7
 79
     5
170
     0
171
     0
290
     0
174
     0
 93
       13
 44
0.0
173
     0
291
     1
 45
0.0
1001
ACAD
1000
AcDbSavedByObjectVersion
1070
     0
  0
VISUALSTYLE
  5
2C
102
{ACAD_REACTORS
330
2A
102
}
102
{ACAD_XDICTIONARY
360
519
102
}
330
2A
100
AcDbVisualStyle
  2
FlatWithEdges
 70
     1
 71
     2
 72
     1
 73
     1
 90
        2
 40
-0.6
 41
30.0
 62
     5
 63
     7
 74
     1
 91
        4
 64
     7
 65
   257
 75
     1
175
     1
 42
1.0
 92
        0
 66
   257
 43
1.0
 76
     1
 77
     6
 78
     2
 67
     7
 79
     5
170
     0
171
     0
290
     0
174
     0
 93
       13
 44
0.0
173
     0
291
     1
 45
0.0
1001
ACAD
1000
AcDbSavedByObjectVersion
1070
     0
  0
VISUALSTYLE
  5
2D
102
{ACAD_REACTORS
330
2A
102
}
102
{ACAD_XDICTIONARY
360
51B
102
}
330
2A
100
AcDbVisualStyle
  2
Gouraud
 70
     2
 71
     2
 72
     2
 73
     1
 90
        2
 40
-0.6
 41
30.0
 62
     5
 63
     7
 74
     0
 91
        4
 64
     7
 65
   257
 75
     1
175
     1
 42
1.0
 92
        0
 66
     7
 43
1.0
 76
     1
 77
     6
 78
     2
 67
     7
 79
     5
170
     0
171
     0
290
     0
174
     0
 93
       13
 44
0.0
173
     0
291
     1
 45
0.0
1001
ACAD
1000
AcDbSavedByObjectVersion
1070
     0
  0
VISUALSTYLE
  5
2E
102
{ACAD_REACTORS
330
2A
102
}
102
{ACAD_XDICTIONARY
360
51D
102
}
330
2A
100
AcDbVisualStyle
  2
GouraudWithEdges
 70
     3
 71
     2
 72
     2
 73
     1
 90
        2
 40
-0.6
 41
30.0
 62
     5
 63
     7
 74
     1
 91
        4
 64
     7
 65
   257
 75
     1
175
     1
 42
1.0
 92
        0
 66
   257
 43
1.0
 76
     1
 77
     6
 78
     2
 67
     7
 79
     5
170
     0
171
     0
290
     0
174
     0
 93
       13
 44
0.0
173
     0
291
     1
 45
0.0
1001
ACAD
1000
AcDbSavedByObjectVersion
1070
     0
  0
VISUALSTYLE
  5
38
102
{ACAD_REACTORS
330
2A
102
}
102
{ACAD_XDICTIONARY
360
531
102
}
330
2A
100
AcDbVisualStyle
  2
Linepattern
 70
    14
 71
     2
 72
     2
 73
     0
 90
        0
 40
-0.6
 41
-30.0
 62
     5
 63
     7
 74
     1
 91
        4
 64
     7
 65
   257
 75
     7
175
     7
 42
1.0
 92
        8
 66
     7
 43
1.0
 76
     1
 77
     6
 78
     2
 67
     7
 79
     5
170
     0
171
     0
290
     0
174
     0
 93
        1
 44
0.0
173
     0
291
     1
 45
0.0
1001
ACAD
1000
AcDbSavedByObjectVersion
1070
     0
  0
VISUALSTYLE
  5
33
102
{ACAD_REACTORS
330
2A
102
}
102
{ACAD_XDICTIONARY
360
527
102
}
330
2A
100
AcDbVisualStyle
  2
Realistic
 70
     8
 71
     2
 72
     2
 73
     0
 90
        0
 40
-0.6
 41
-30.0
 62
     5
 63
     7
 74
     1
 91
        0
 64
     7
 65
   257
 75
     1
175
     1
 42
1.0
 92
        8
 66
     8
 43
1.0
 76
     1
 77
     6
 78
     2
 67
     7
 79
     5
170
     0
171
     0
290
     0
174
     0
 93
       13
 44
0.0
173
     0
291
     0
 45
0.0
1001
ACAD
1000
AcDbSavedByObjectVersion
1070
     0
  0
VISUALSTYLE
  5
37
102
{ACAD_REACTORS
330
2A
102
}
102
{ACAD_XDICTIONARY
360
52F
102
}
330
2A
100
AcDbVisualStyle
  2
Thicken
 70
    13
 71
     2
 72
     2
 73
     0
 90
        0
 40
-0.6
 41
-30.0
 62
     5
 63
     7
 74
     1
 91
        4
 64
     7
 65
   257
 75
     1
175
     1
 42
1.0
 92
       12
 66
     7
 43
1.0
 76
     1
 77
     6
 78
     2
 67
     7
 79
     5
170
     0
171
     0
290
     0
174
     0
 93
        1
 44
0.0
173
     0
291
     1
 45
0.0
1001
ACAD
1000
AcDbSavedByObjectVersion
1070
     0
  0
DICTIONARYVAR
  5
515
102
{ACAD_REACTORS
330
510
102
}
330
510
100
DictionaryVariables
280
     0
  1
2
  0
DICTIONARYVAR
  5
516
102
{ACAD_REACTORS
330
510
102
}
330
510
100
DictionaryVariables
280
     0
  1
1
  0
DICTIONARYVAR
  5
514
102
{ACAD_REACTORS
330
510
102
}
330
510
100
DictionaryVariables
280
     0
  1
80.000000
  0
DICTIONARYVAR
  5
513
102
{ACAD_REACTORS
330
510
102
}
330
510
100
DictionaryVariables
280
     0
  1
5.000000
  0
DICTIONARY
  5
539
330
3D
100
AcDbDictionary
280
     1
281
     1
  3
ACAD_XREC_ROUNDTRIP
360
53A
  0
DICTIONARY
  5
537
330
3C
100
AcDbDictionary
280
     1
281
     1
  3
ACAD_XREC_ROUNDTRIP
360
538
  0
DICTIONARY
  5
53B
330
3E
100
AcDbDictionary
280
     1
281
     1
  3
ACAD_XREC_ROUNDTRIP
360
53C
  0
DICTIONARY
  5
51F
330
2F
100
AcDbDictionary
280
     1
281
     1
  3
ACAD_XREC_ROUNDTRIP
360
520
  0
DICTIONARY
  5
523
330
31
100
AcDbDictionary
280
     1
281
     1
  3
ACAD_XREC_ROUNDTRIP
360
524
  0
DICTIONARY
  5
521
330
30
100
AcDbDictionary
280
     1
281
     1
  3
ACAD_XREC_ROUNDTRIP
360
522
  0
DICTIONARY
  5
525
330
32
100
AcDbDictionary
280
     1
281
     1
  3
ACAD_XREC_ROUNDTRIP
360
526
  0
DICTIONARY
  5
52D
330
36
100
AcDbDictionary
280
     1
281
     1
  3
ACAD_XREC_ROUNDTRIP
360
52E
  0
DICTIONARY
  5
535
330
3A
100
AcDbDictionary
280
     1
281
     1
  3
ACAD_XREC_ROUNDTRIP
360
536
  0
DICTIONARY
  5
529
330
34
100
AcDbDictionary
280
     1
281
     1
  3
ACAD_XREC_ROUNDTRIP
360
52A
  0
DICTIONARY
  5
52B
330
35
100
AcDbDictionary
280
     1
281
     1
  3
ACAD_XREC_ROUNDTRIP
360
52C
  0
DICTIONARY
  5
533
330
39
100
AcDbDictionary
280
     1
281
     1
  3
ACAD_XREC_ROUNDTRIP
360
534
  0
DICTIONARY
  5
517
330
2B
100
AcDbDictionary
280
     1
281
     1
  3
ACAD_XREC_ROUNDTRIP
360
518
  0
DICTIONARY
  5
519
330
2C
100
AcDbDictionary
280
     1
281
     1
  3
ACAD_XREC_ROUNDTRIP
360
51A
  0
DICTIONARY
  5
51B
330
2D
100
AcDbDictionary
280
     1
281
     1
  3
ACAD_XREC_ROUNDTRIP
360
51C
  0
DICTIONARY
  5
51D
330
2E
100
AcDbDictionary
280
     1
281
     1
  3
ACAD_XREC_ROUNDTRIP
360
51E
  0
DICTIONARY
  5
531
330
38
100
AcDbDictionary
280
     1
281
     1
  3
ACAD_XREC_ROUNDTRIP
360
532
  0
DICTIONARY
  5
527
330
33
100
AcDbDictionary
280
     1
281
     1
  3
ACAD_XREC_ROUNDTRIP
360
528
  0
DICTIONARY
  5
52F
330
37
100
AcDbDictionary
280
     1
281
     1
  3
ACAD_XREC_ROUNDTRIP
360
530
  0
XRECORD
  5
53A
102
{ACAD_REACTORS
330
539
102
}
330
539
100
AcDbXrecord
280
     1
102
MATERIAL
148
0.0
149
0.0
149
0.0
 93
        0
 94
      127
282
     0
 72
     1
 77
     1
171
     1
175
     1
179
     1
273
     0
  0
XRECORD
  5
538
102
{ACAD_REACTORS
330
537
102
}
330
537
100
AcDbXrecord
280
     1
102
MATERIAL
148
0.0
149
0.0
149
0.0
 93
        0
 94
      127
282
     0
 72
     1
 77
     1
171
     1
175
     1
179
     1
273
     0
  0
XRECORD
  5
53C
102
{ACAD_REACTORS
330
53B
102
}
330
53B
100
AcDbXrecord
280
     1
102
MATERIAL
148
0.0
149
0.0
149
0.0
 93
        0
 94
      127
282
     0
 72
     1
 77
     1
171
     1
175
     1
179
     1
273
     0
  0
XRECORD
  5
520
102
{ACAD_REACTORS
330
51F
102
}
330
51F
100
AcDbXrecord
280
     1
102
RTVSPropertyOp0
 70
     1
102
RTVSPropertyOp1
 70
     1
102
RTVSPropertyOp2
 70
     1
102
RTVSPropertyOp3
 70
     1
102
RTVSPropertyOp4
 70
     1
102
RTVSPropertyOp5
 70
     1
102
RTVSPropertyOp6
 70
     1
102
RTVSPropertyOp7
 70
     1
102
RTVSPropertyOp8
 70
     1
102
RTVSPropertyOp9
 70
     1
102
RTVSPropertyOp10
 70
     1
102
RTVSPropertyOp11
 70
     1
102
RTVSPropertyOp12
 70
     1
102
RTVSPropertyOp13
 70
     1
102
RTVSPropertyOp14
 70
     1
102
RTVSPropertyOp15
 70
     1
102
RTVSPropertyOp16
 70
     1
102
RTVSPropertyOp17
 70
     1
102
RTVSPropertyOp18
 70
     1
102
RTVSPropertyOp19
 70
     1
102
RTVSPropertyOp20
 70
     1
102
RTVSPropertyOp21
 70
     1
102
RTVSPropertyOp22
 70
     1
102
RTVSPropertyOp23
 70
     1
102
RTVSPropertyOp24
 70
     1
102
RTVSPropertyOp25
 70
     1
102
RTVSPropertyOp26
 70
     1
102
RTVSPropertyOp27
 70
     1
102
RTVSPropertyOp28
 70
     1
102
RTVSPropertyOp29
 70
     1
102
RTVSPropertyOp30
 70
     1
102
RTVSPropertyOp31
 70
     1
102
RTVSPropertyOp32
 70
     1
  0
XRECORD
  5
524
102
{ACAD_REACTORS
330
523
102
}
330
523
100
AcDbXrecord
280
     1
102
RTVSPropertyOp0
 70
     1
102
RTVSPropertyOp1
 70
     1
102
RTVSPropertyOp2
 70
     1
102
RTVSPropertyOp3
 70
     1
102
RTVSPropertyOp4
 70
     1
102
RTVSPropertyOp5
 70
     1
102
RTVSPropertyOp6
 70
     1
102
RTVSPropertyOp7
 70
     1
102
RTVSPropertyOp8
 70
     1
102
RTVSPropertyOp9
 70
     1
102
RTVSPropertyOp10
 70
     1
102
RTVSPropertyOp11
 70
     1
102
RTVSPropertyOp12
 70
     1
102
RTVSPropertyOp13
 70
     1
102
RTVSPropertyOp14
 70
     1
102
RTVSPropertyOp15
 70
     1
102
RTVSPropertyOp16
 70
     1
102
RTVSPropertyOp17
 70
     1
102
RTVSPropertyOp18
 70
     1
102
RTVSPropertyOp19
 70
     1
102
RTVSPropertyOp20
 70
     1
102
RTVSPropertyOp21
 70
     1
102
RTVSPropertyOp22
 70
     1
102
RTVSPropertyOp23
 70
     1
102
RTVSPropertyOp24
 70
     1
102
RTVSPropertyOp25
 70
     1
102
RTVSPropertyOp26
 70
     1
102
RTVSPropertyOp27
 70
     1
102
RTVSPropertyOp28
 70
     1
102
RTVSPropertyOp29
 70
     1
102
RTVSPropertyOp30
 70
     1
102
RTVSPropertyOp31
 70
     1
102
RTVSPropertyOp32
 70
     1
  0
XRECORD
  5
522
102
{ACAD_REACTORS
330
521
102
}
330
521
100
AcDbXrecord
280
     1
102
RTVSPropertyOp0
 70
     1
102
RTVSPropertyOp1
 70
     1
102
RTVSPropertyOp2
 70
     1
102
RTVSPropertyOp3
 70
     1
102
RTVSPropertyOp4
 70
     1
102
RTVSPropertyOp5
 70
     1
102
RTVSPropertyOp6
 70
     1
102
RTVSPropertyOp7
 70
     1
102
RTVSPropertyOp8
 70
     1
102
RTVSPropertyOp9
 70
     1
102
RTVSPropertyOp10
 70
     1
102
RTVSPropertyOp11
 70
     1
102
RTVSPropertyOp12
 70
     1
102
RTVSPropertyOp13
 70
     1
102
RTVSPropertyOp14
 70
     1
102
RTVSPropertyOp15
 70
     1
102
RTVSPropertyOp16
 70
     1
102
RTVSPropertyOp17
 70
     1
102
RTVSPropertyOp18
 70
     1
102
RTVSPropertyOp19
 70
     1
102
RTVSPropertyOp20
 70
     1
102
RTVSPropertyOp21
 70
     1
102
RTVSPropertyOp22
 70
     1
102
RTVSPropertyOp23
 70
     1
102
RTVSPropertyOp24
 70
     1
102
RTVSPropertyOp25
 70
     1
102
RTVSPropertyOp26
 70
     1
102
RTVSPropertyOp27
 70
     1
102
RTVSPropertyOp28
 70
     1
102
RTVSPropertyOp29
 70
     1
102
RTVSPropertyOp30
 70
     1
102
RTVSPropertyOp31
 70
     1
102
RTVSPropertyOp32
 70
     1
  0
XRECORD
  5
526
102
{ACAD_REACTORS
330
525
102
}
330
525
100
AcDbXrecord
280
     1
102
RTVSPropertyOp0
 70
     1
102
RTVSPropertyOp1
 70
     1
102
RTVSPropertyOp2
 70
     1
102
RTVSPropertyOp3
 70
     1
102
RTVSPropertyOp4
 70
     1
102
RTVSPropertyOp5
 70
     1
102
RTVSPropertyOp6
 70
     1
102
RTVSPropertyOp7
 70
     1
102
RTVSPropertyOp8
 70
     1
102
RTVSPropertyOp9
 70
     1
102
RTVSPropertyOp10
 70
     1
102
RTVSPropertyOp11
 70
     1
102
RTVSPropertyOp12
 70
     1
102
RTVSPropertyOp13
 70
     1
102
RTVSPropertyOp14
 70
     1
102
RTVSPropertyOp15
 70
     1
102
RTVSPropertyOp16
 70
     1
102
RTVSPropertyOp17
 70
     1
102
RTVSPropertyOp18
 70
     1
102
RTVSPropertyOp19
 70
     1
102
RTVSPropertyOp20
 70
     1
102
RTVSPropertyOp21
 70
     1
102
RTVSPropertyOp22
 70
     1
102
RTVSPropertyOp23
 70
     1
102
RTVSPropertyOp24
 70
     1
102
RTVSPropertyOp25
 70
     1
102
RTVSPropertyOp26
 70
     1
102
RTVSPropertyOp27
 70
     1
102
RTVSPropertyOp28
 70
     1
102
RTVSPropertyOp29
 70
     1
102
RTVSPropertyOp30
 70
     1
102
RTVSPropertyOp31
 70
     1
102
RTVSPropertyOp32
 70
     1
  0
XRECORD
  5
52E
102
{ACAD_REACTORS
330
52D
102
}
330
52D
100
AcDbXrecord
280
     1
102
RTVSPropertyOp0
 70
     1
102
RTVSPropertyOp1
 70
     1
102
RTVSPropertyOp2
 70
     1
102
RTVSPropertyOp3
 70
     1
102
RTVSPropertyOp4
 70
     1
102
RTVSPropertyOp5
 70
     1
102
RTVSPropertyOp6
 70
     1
102
RTVSPropertyOp7
 70
     1
102
RTVSPropertyOp8
 70
     1
102
RTVSPropertyOp9
 70
     1
102
RTVSPropertyOp10
 70
     1
102
RTVSPropertyOp11
 70
     1
102
RTVSPropertyOp12
 70
     1
102
RTVSPropertyOp13
 70
     1
102
RTVSPropertyOp14
 70
     1
102
RTVSPropertyOp15
 70
     1
102
RTVSPropertyOp16
 70
     1
102
RTVSPropertyOp17
 70
     1
102
RTVSPropertyOp18
 70
     1
102
RTVSPropertyOp19
 70
     1
102
RTVSPropertyOp20
 70
     1
102
RTVSPropertyOp21
 70
     1
102
RTVSPropertyOp22
 70
     1
102
RTVSPropertyOp23
 70
     1
102
RTVSPropertyOp24
 70
     1
102
RTVSPropertyOp25
 70
     1
102
RTVSPropertyOp26
 70
     1
102
RTVSPropertyOp27
 70
     1
102
RTVSPropertyOp28
 70
     1
102
RTVSPropertyOp29
 70
     1
102
RTVSPropertyOp30
 70
     1
102
RTVSPropertyOp31
 70
     1
102
RTVSPropertyOp32
 70
     1
  0
XRECORD
  5
536
102
{ACAD_REACTORS
330
535
102
}
330
535
100
AcDbXrecord
280
     1
102
RTVSPropertyOp0
 70
     1
102
RTVSPropertyOp1
 70
     1
102
RTVSPropertyOp2
 70
     1
102
RTVSPropertyOp3
 70
     1
102
RTVSPropertyOp4
 70
     1
102
RTVSPropertyOp5
 70
     1
102
RTVSPropertyOp6
 70
     1
102
RTVSPropertyOp7
 70
     1
102
RTVSPropertyOp8
 70
     1
102
RTVSPropertyOp9
 70
     1
102
RTVSPropertyOp10
 70
     1
102
RTVSPropertyOp11
 70
     1
102
RTVSPropertyOp12
 70
     1
102
RTVSPropertyOp13
 70
     1
102
RTVSPropertyOp14
 70
     1
102
RTVSPropertyOp15
 70
     1
102
RTVSPropertyOp16
 70
     1
102
RTVSPropertyOp17
 70
     1
102
RTVSPropertyOp18
 70
     1
102
RTVSPropertyOp19
 70
     1
102
RTVSPropertyOp20
 70
     1
102
RTVSPropertyOp21
 70
     1
102
RTVSPropertyOp22
 70
     1
102
RTVSPropertyOp23
 70
     1
102
RTVSPropertyOp24
 70
     1
102
RTVSPropertyOp25
 70
     1
102
RTVSPropertyOp26
 70
     1
102
RTVSPropertyOp27
 70
     1
102
RTVSPropertyOp28
 70
     1
102
RTVSPropertyOp29
 70
     1
102
RTVSPropertyOp30
 70
     1
102
RTVSPropertyOp31
 70
     1
102
RTVSPropertyOp32
 70
     1
  0
XRECORD
  5
52A
102
{ACAD_REACTORS
330
529
102
}
330
529
100
AcDbXrecord
280
     1
102
RTVSPropertyOp0
 70
     1
102
RTVSPropertyOp1
 70
     1
102
RTVSPropertyOp2
 70
     1
102
RTVSPropertyOp3
 70
     1
102
RTVSPropertyOp4
 70
     1
102
RTVSPropertyOp5
 70
     1
102
RTVSPropertyOp6
 70
     1
102
RTVSPropertyOp7
 70
     1
102
RTVSPropertyOp8
 70
     1
102
RTVSPropertyOp9
 70
     1
102
RTVSPropertyOp10
 70
     1
102
RTVSPropertyOp11
 70
     1
102
RTVSPropertyOp12
 70
     1
102
RTVSPropertyOp13
 70
     1
102
RTVSPropertyOp14
 70
     1
102
RTVSPropertyOp15
 70
     1
102
RTVSPropertyOp16
 70
     1
102
RTVSPropertyOp17
 70
     1
102
RTVSPropertyOp18
 70
     1
102
RTVSPropertyOp19
 70
     1
102
RTVSPropertyOp20
 70
     1
102
RTVSPropertyOp21
 70
     1
102
RTVSPropertyOp22
 70
     1
102
RTVSPropertyOp23
 70
     1
102
RTVSPropertyOp24
 70
     1
102
RTVSPropertyOp25
 70
     1
102
RTVSPropertyOp26
 70
     1
102
RTVSPropertyOp27
 70
     1
102
RTVSPropertyOp28
 70
     1
102
RTVSPropertyOp29
 70
     1
102
RTVSPropertyOp30
 70
     1
102
RTVSPropertyOp31
 70
     1
102
RTVSPropertyOp32
 70
     1
  0
XRECORD
  5
52C
102
{ACAD_REACTORS
330
52B
102
}
330
52B
100
AcDbXrecord
280
     1
102
RTVSPropertyOp0
 70
     1
102
RTVSPropertyOp1
 70
     1
102
RTVSPropertyOp2
 70
     1
102
RTVSPropertyOp3
 70
     1
102
RTVSPropertyOp4
 70
     1
102
RTVSPropertyOp5
 70
     1
102
RTVSPropertyOp6
 70
     1
102
RTVSPropertyOp7
 70
     1
102
RTVSPropertyOp8
 70
     1
102
RTVSPropertyOp9
 70
     1
102
RTVSPropertyOp10
 70
     1
102
RTVSPropertyOp11
 70
     1
102
RTVSPropertyOp12
 70
     1
102
RTVSPropertyOp13
 70
     1
102
RTVSPropertyOp14
 70
     1
102
RTVSPropertyOp15
 70
     1
102
RTVSPropertyOp16
 70
     1
102
RTVSPropertyOp17
 70
     1
102
RTVSPropertyOp18
 70
     1
102
RTVSPropertyOp19
 70
     1
102
RTVSPropertyOp20
 70
     1
102
RTVSPropertyOp21
 70
     1
102
RTVSPropertyOp22
 70
     1
102
RTVSPropertyOp23
 70
     1
102
RTVSPropertyOp24
 70
     1
102
RTVSPropertyOp25
 70
     1
102
RTVSPropertyOp26
 70
     1
102
RTVSPropertyOp27
 70
     1
102
RTVSPropertyOp28
 70
     1
102
RTVSPropertyOp29
 70
     1
102
RTVSPropertyOp30
 70
     1
102
RTVSPropertyOp31
 70
     1
102
RTVSPropertyOp32
 70
     1
  0
XRECORD
  5
534
102
{ACAD_REACTORS
330
533
102
}
330
533
100
AcDbXrecord
280
     1
102
RTVSPropertyOp0
 70
     1
102
RTVSPropertyOp1
 70
     1
102
RTVSPropertyOp2
 70
     1
102
RTVSPropertyOp3
 70
     1
102
RTVSPropertyOp4
 70
     1
102
RTVSPropertyOp5
 70
     1
102
RTVSPropertyOp6
 70
     1
102
RTVSPropertyOp7
 70
     1
102
RTVSPropertyOp8
 70
     1
102
RTVSPropertyOp9
 70
     1
102
RTVSPropertyOp10
 70
     1
102
RTVSPropertyOp11
 70
     1
102
RTVSPropertyOp12
 70
     1
102
RTVSPropertyOp13
 70
     1
102
RTVSPropertyOp14
 70
     1
102
RTVSPropertyOp15
 70
     1
102
RTVSPropertyOp16
 70
     1
102
RTVSPropertyOp17
 70
     1
102
RTVSPropertyOp18
 70
     1
102
RTVSPropertyOp19
 70
     1
102
RTVSPropertyOp20
 70
     1
102
RTVSPropertyOp21
 70
     1
102
RTVSPropertyOp22
 70
     1
102
RTVSPropertyOp23
 70
     1
102
RTVSPropertyOp24
 70
     1
102
RTVSPropertyOp25
 70
     1
102
RTVSPropertyOp26
 70
     1
102
RTVSPropertyOp27
 70
     1
102
RTVSPropertyOp28
 70
     1
102
RTVSPropertyOp29
 70
     1
102
RTVSPropertyOp30
 70
     1
102
RTVSPropertyOp31
 70
     1
102
RTVSPropertyOp32
 70
     1
  0
XRECORD
  5
518
102
{ACAD_REACTORS
330
517
102
}
330
517
100
AcDbXrecord
280
     1
102
RTVSPropertyOp0
 70
     1
102
RTVSPropertyOp1
 70
     1
102
RTVSPropertyOp2
 70
     1
102
RTVSPropertyOp3
 70
     1
102
RTVSPropertyOp4
 70
     1
102
RTVSPropertyOp5
 70
     1
102
RTVSPropertyOp6
 70
     1
102
RTVSPropertyOp7
 70
     1
102
RTVSPropertyOp8
 70
     1
102
RTVSPropertyOp9
 70
     1
102
RTVSPropertyOp10
 70
     1
102
RTVSPropertyOp11
 70
     1
102
RTVSPropertyOp12
 70
     1
102
RTVSPropertyOp13
 70
     1
102
RTVSPropertyOp14
 70
     1
102
RTVSPropertyOp15
 70
     1
102
RTVSPropertyOp16
 70
     1
102
RTVSPropertyOp17
 70
     1
102
RTVSPropertyOp18
 70
     1
102
RTVSPropertyOp19
 70
     1
102
RTVSPropertyOp20
 70
     1
102
RTVSPropertyOp21
 70
     1
102
RTVSPropertyOp22
 70
     1
102
RTVSPropertyOp23
 70
     1
102
RTVSPropertyOp24
 70
     1
102
RTVSPropertyOp25
 70
     1
102
RTVSPropertyOp26
 70
     1
102
RTVSPropertyOp27
 70
     1
102
RTVSPropertyOp28
 70
     1
102
RTVSPropertyOp29
 70
     1
102
RTVSPropertyOp30
 70
     1
102
RTVSPropertyOp31
 70
     1
102
RTVSPropertyOp32
 70
     1
  0
XRECORD
  5
51A
102
{ACAD_REACTORS
330
519
102
}
330
519
100
AcDbXrecord
280
     1
102
RTVSPropertyOp0
 70
     1
102
RTVSPropertyOp1
 70
     1
102
RTVSPropertyOp2
 70
     1
102
RTVSPropertyOp3
 70
     1
102
RTVSPropertyOp4
 70
     1
102
RTVSPropertyOp5
 70
     1
102
RTVSPropertyOp6
 70
     1
102
RTVSPropertyOp7
 70
     1
102
RTVSPropertyOp8
 70
     1
102
RTVSPropertyOp9
 70
     1
102
RTVSPropertyOp10
 70
     1
102
RTVSPropertyOp11
 70
     1
102
RTVSPropertyOp12
 70
     1
102
RTVSPropertyOp13
 70
     1
102
RTVSPropertyOp14
 70
     1
102
RTVSPropertyOp15
 70
     1
102
RTVSPropertyOp16
 70
     1
102
RTVSPropertyOp17
 70
     1
102
RTVSPropertyOp18
 70
     1
102
RTVSPropertyOp19
 70
     1
102
RTVSPropertyOp20
 70
     1
102
RTVSPropertyOp21
 70
     1
102
RTVSPropertyOp22
 70
     1
102
RTVSPropertyOp23
 70
     1
102
RTVSPropertyOp24
 70
     1
102
RTVSPropertyOp25
 70
     1
102
RTVSPropertyOp26
 70
     1
102
RTVSPropertyOp27
 70
     1
102
RTVSPropertyOp28
 70
     1
102
RTVSPropertyOp29
 70
     1
102
RTVSPropertyOp30
 70
     1
102
RTVSPropertyOp31
 70
     1
102
RTVSPropertyOp32
 70
     1
  0
XRECORD
  5
51C
102
{ACAD_REACTORS
330
51B
102
}
330
51B
100
AcDbXrecord
280
     1
102
RTVSPropertyOp0
 70
     1
102
RTVSPropertyOp1
 70
     1
102
RTVSPropertyOp2
 70
     1
102
RTVSPropertyOp3
 70
     1
102
RTVSPropertyOp4
 70
     1
102
RTVSPropertyOp5
 70
     1
102
RTVSPropertyOp6
 70
     1
102
RTVSPropertyOp7
 70
     1
102
RTVSPropertyOp8
 70
     1
102
RTVSPropertyOp9
 70
     1
102
RTVSPropertyOp10
 70
     1
102
RTVSPropertyOp11
 70
     1
102
RTVSPropertyOp12
 70
     1
102
RTVSPropertyOp13
 70
     1
102
RTVSPropertyOp14
 70
     1
102
RTVSPropertyOp15
 70
     1
102
RTVSPropertyOp16
 70
     1
102
RTVSPropertyOp17
 70
     1
102
RTVSPropertyOp18
 70
     1
102
RTVSPropertyOp19
 70
     1
102
RTVSPropertyOp20
 70
     1
102
RTVSPropertyOp21
 70
     1
102
RTVSPropertyOp22
 70
     1
102
RTVSPropertyOp23
 70
     1
102
RTVSPropertyOp24
 70
     1
102
RTVSPropertyOp25
 70
     1
102
RTVSPropertyOp26
 70
     1
102
RTVSPropertyOp27
 70
     1
102
RTVSPropertyOp28
 70
     1
102
RTVSPropertyOp29
 70
     1
102
RTVSPropertyOp30
 70
     1
102
RTVSPropertyOp31
 70
     1
102
RTVSPropertyOp32
 70
     1
  0
XRECORD
  5
51E
102
{ACAD_REACTORS
330
51D
102
}
330
51D
100
AcDbXrecord
280
     1
102
RTVSPropertyOp0
 70
     1
102
RTVSPropertyOp1
 70
     1
102
RTVSPropertyOp2
 70
     1
102
RTVSPropertyOp3
 70
     1
102
RTVSPropertyOp4
 70
     1
102
RTVSPropertyOp5
 70
     1
102
RTVSPropertyOp6
 70
     1
102
RTVSPropertyOp7
 70
     1
102
RTVSPropertyOp8
 70
     1
102
RTVSPropertyOp9
 70
     1
102
RTVSPropertyOp10
 70
     1
102
RTVSPropertyOp11
 70
     1
102
RTVSPropertyOp12
 70
     1
102
RTVSPropertyOp13
 70
     1
102
RTVSPropertyOp14
 70
     1
102
RTVSPropertyOp15
 70
     1
102
RTVSPropertyOp16
 70
     1
102
RTVSPropertyOp17
 70
     1
102
RTVSPropertyOp18
 70
     1
102
RTVSPropertyOp19
 70
     1
102
RTVSPropertyOp20
 70
     1
102
RTVSPropertyOp21
 70
     1
102
RTVSPropertyOp22
 70
     1
102
RTVSPropertyOp23
 70
     1
102
RTVSPropertyOp24
 70
     1
102
RTVSPropertyOp25
 70
     1
102
RTVSPropertyOp26
 70
     1
102
RTVSPropertyOp27
 70
     1
102
RTVSPropertyOp28
 70
     1
102
RTVSPropertyOp29
 70
     1
102
RTVSPropertyOp30
 70
     1
102
RTVSPropertyOp31
 70
     1
102
RTVSPropertyOp32
 70
     1
  0
XRECORD
  5
532
102
{ACAD_REACTORS
330
531
102
}
330
531
100
AcDbXrecord
280
     1
102
RTVSPropertyOp0
 70
     1
102
RTVSPropertyOp1
 70
     1
102
RTVSPropertyOp2
 70
     1
102
RTVSPropertyOp3
 70
     1
102
RTVSPropertyOp4
 70
     1
102
RTVSPropertyOp5
 70
     1
102
RTVSPropertyOp6
 70
     1
102
RTVSPropertyOp7
 70
     1
102
RTVSPropertyOp8
 70
     1
102
RTVSPropertyOp9
 70
     1
102
RTVSPropertyOp10
 70
     1
102
RTVSPropertyOp11
 70
     1
102
RTVSPropertyOp12
 70
     1
102
RTVSPropertyOp13
 70
     1
102
RTVSPropertyOp14
 70
     1
102
RTVSPropertyOp15
 70
     1
102
RTVSPropertyOp16
 70
     1
102
RTVSPropertyOp17
 70
     1
102
RTVSPropertyOp18
 70
     1
102
RTVSPropertyOp19
 70
     1
102
RTVSPropertyOp20
 70
     1
102
RTVSPropertyOp21
 70
     1
102
RTVSPropertyOp22
 70
     1
102
RTVSPropertyOp23
 70
     1
102
RTVSPropertyOp24
 70
     1
102
RTVSPropertyOp25
 70
     1
102
RTVSPropertyOp26
 70
     1
102
RTVSPropertyOp27
 70
     1
102
RTVSPropertyOp28
 70
     1
102
RTVSPropertyOp29
 70
     1
102
RTVSPropertyOp30
 70
     1
102
RTVSPropertyOp31
 70
     1
102
RTVSPropertyOp32
 70
     1
  0
XRECORD
  5
528
102
{ACAD_REACTORS
330
527
102
}
330
527
100
AcDbXrecord
280
     1
102
RTVSPropertyOp0
 70
     1
102
RTVSPropertyOp1
 70
     1
102
RTVSPropertyOp2
 70
     1
102
RTVSPropertyOp3
 70
     1
102
RTVSPropertyOp4
 70
     1
102
RTVSPropertyOp5
 70
     1
102
RTVSPropertyOp6
 70
     1
102
RTVSPropertyOp7
 70
     1
102
RTVSPropertyOp8
 70
     1
102
RTVSPropertyOp9
 70
     1
102
RTVSPropertyOp10
 70
     1
102
RTVSPropertyOp11
 70
     1
102
RTVSPropertyOp12
 70
     1
102
RTVSPropertyOp13
 70
     1
102
RTVSPropertyOp14
 70
     1
102
RTVSPropertyOp15
 70
     1
102
RTVSPropertyOp16
 70
     1
102
RTVSPropertyOp17
 70
     1
102
RTVSPropertyOp18
 70
     1
102
RTVSPropertyOp19
 70
     1
102
RTVSPropertyOp20
 70
     1
102
RTVSPropertyOp21
 70
     1
102
RTVSPropertyOp22
 70
     1
102
RTVSPropertyOp23
 70
     1
102
RTVSPropertyOp24
 70
     1
102
RTVSPropertyOp25
 70
     1
102
RTVSPropertyOp26
 70
     1
102
RTVSPropertyOp27
 70
     1
102
RTVSPropertyOp28
 70
     1
102
RTVSPropertyOp29
 70
     1
102
RTVSPropertyOp30
 70
     1
102
RTVSPropertyOp31
 70
     1
102
RTVSPropertyOp32
 70
     1
  0
XRECORD
  5
530
102
{ACAD_REACTORS
330
52F
102
}
330
52F
100
AcDbXrecord
280
     1
102
RTVSPropertyOp0
 70
     1
102
RTVSPropertyOp1
 70
     1
102
RTVSPropertyOp2
 70
     1
102
RTVSPropertyOp3
 70
     1
102
RTVSPropertyOp4
 70
     1
102
RTVSPropertyOp5
 70
     1
102
RTVSPropertyOp6
 70
     1
102
RTVSPropertyOp7
 70
     1
102
RTVSPropertyOp8
 70
     1
102
RTVSPropertyOp9
 70
     1
102
RTVSPropertyOp10
 70
     1
102
RTVSPropertyOp11
 70
     1
102
RTVSPropertyOp12
 70
     1
102
RTVSPropertyOp13
 70
     1
102
RTVSPropertyOp14
 70
     1
102
RTVSPropertyOp15
 70
     1
102
RTVSPropertyOp16
 70
     1
102
RTVSPropertyOp17
 70
     1
102
RTVSPropertyOp18
 70
     1
102
RTVSPropertyOp19
 70
     1
102
RTVSPropertyOp20
 70
     1
102
RTVSPropertyOp21
 70
     1
102
RTVSPropertyOp22
 70
     1
102
RTVSPropertyOp23
 70
     1
102
RTVSPropertyOp24
 70
     1
102
RTVSPropertyOp25
 70
     1
102
RTVSPropertyOp26
 70
     1
102
RTVSPropertyOp27
 70
     1
102
RTVSPropertyOp28
 70
     1
102
RTVSPropertyOp29
 70
     1
102
RTVSPropertyOp30
 70
     1
102
RTVSPropertyOp31
 70
     1
102
RTVSPropertyOp32
 70
     1
  0
ENDSEC
  0
EOF
